0
SECTION
2
HEADER
9
$EXTMIN
10
0
20
-301.28378882399841
9
$EXTMAX
10
1326.9587674701627
20
306.54808053026352
9
$LIMMIN
10
0
20
0
9
$LIMMAX
10
420
20
297
0
ENDSEC
0
SECTION
2
TABLES
0
TABLE
2
VPORT
70
2
0
VPORT
2
*ACTIVE
70
0
10
0.0
20
0.0
11
1.0
21
1.0
12
518.01869787942519
22
110.25035085184079
13
0.0
23
0.0
14
1.0
24
1.0
15
0.0
25
0.0
16
0.0
26
0.0
36
1.0
17
0.0
27
0.0
37
0.0
40
183.38740979557159
41
2.0878155872667397
42
50.0
43
0.0
44
0.0
50
0.0
51
0.0
71
0
72
100
73
1
74
1
75
0
76
0
77
0
78
0
0
ENDTAB
0
TABLE
2
LTYPE
70
10
0
LTYPE
2
CONTINUOUS
70
64
3
SolidLine
72
65
73
0
40
0
0
LTYPE
2
DASHED
70
64
3
_ _ _ _ _ _ _ _ _ _ _ _
72
65
73
2
40
4
49
2
49
-2
0
LTYPE
2
DOT
70
64
3
.......................
72
65
73
2
40
3
49
1
49
-2
0
LTYPE
2
DASHDOT
70
64
3
__.__.__.__.__.__.__.__
72
65
73
4
40
17
49
10
49
-2
49
3
49
-2
0
LTYPE
2
DIVIDE
70
64
3
__..__..__..__..__..__
72
65
73
6
40
30
49
20
49
-2
49
2
49
-2
49
2
49
-2
0
LTYPE
2
CENTER
70
64
3
_____ _ ____ _ ____ _ ____
72
65
73
4
40
13
49
10
49
-1
49
1
49
-1
0
LTYPE
2
CONTINUOUS
70
64
3
SolidLine
72
65
73
0
40
0
0
LTYPE
2
CONTINUOUS
70
64
3
SolidLine
72
65
73
0
40
0
0
LTYPE
2
CONTINUOUS
70
64
3
SolidLine
72
65
73
0
40
0
0
LTYPE
2
CONTINUOUS
70
64
3
SolidLine
72
65
73
0
40
0
0
LTYPE
2
CONTINUOUS
70
64
3
SolidLine
72
65
73
0
40
0
0
LTYPE
2
CONTINUOUS
70
64
3
SolidLine
72
65
73
0
40
0
0
LTYPE
2
CONTINUOUS
70
64
3
SolidLine
72
65
73
0
40
0
0
LTYPE
2
CONTINUOUS
70
64
3
SolidLine
72
65
73
0
40
0
0
LTYPE
2
CONTINUOUS
70
64
3
SolidLine
72
65
73
0
40
0
0
LTYPE
2
CONTINUOUS
70
64
3
SolidLine
72
65
73
0
40
0
0
ENDTAB
0
TABLE
2
LAYER
70
100
0
LAYER
2
BaseLayer
70
64
62
7
6
CONTINUOUS
0
LAYER
2
作画層１
70
64
62
7
6
CONTINUOUS
0
LAYER
2
作画層２
70
64
62
7
6
CONTINUOUS
0
LAYER
2
下書線層
70
64
62
7
6
CONTINUOUS
0
LAYER
2
一時下書線層
70
64
62
7
6
CONTINUOUS
0
LAYER
2
基準線層１
70
64
62
7
6
CONTINUOUS
0
LAYER
2
基準線層２
70
64
62
7
6
CONTINUOUS
0
LAYER
2
注記層１
70
64
62
7
6
CONTINUOUS
0
LAYER
2
注記層２
70
64
62
7
6
CONTINUOUS
0
LAYER
2
寸法線層１
70
64
62
7
6
CONTINUOUS
0
LAYER
2
寸法線層２
70
64
62
7
6
CONTINUOUS
0
LAYER
2
部品配置層１
70
64
62
7
6
CONTINUOUS
0
LAYER
2
部品配置層２
70
64
62
7
6
CONTINUOUS
0
LAYER
2
SONNET_Copper_1
70
64
62
7
6
CONTINUOUS
0
LAYER
2
FRAME
70
64
62
7
6
CONTINUOUS
0
LAYER
2
COMPONENT
70
64
62
7
6
CONTINUOUS
0
ENDTAB
0
TABLE
2
STYLE
70
9
0
STYLE
2
EXTFONT
70
64
40
0.0
41
1.0
42
3.5
50
0.0
71
0
3
txt
4
EXTFONT
0
STYLE
2
BIGFONT
70
64
40
0.0
41
1.0
42
3.5
50
0.0
71
0
3
txt
4
BIGFONT
0
ENDTAB
0
TABLE
  2
DIMSTYLE
70
1
  0
DIMSTYLE
2
EXTFONT
70
0
3

4

5

6

7

40
1
41
3
42
1
 43
3.75
 44
1.25
 45
0
 46
0
 47
0
 48
0
140
3
141
0
142
0
143
0.0394
144
1
145
0
146
1
147
1
 71
0
 72
0
 73
0
 74
0
 75
0
 76
0
 77
1
 78
8
170
0
171
4
172
1
173
0
174
0
175
0
176
0
177
0
178
0
0
ENDTAB
0
ENDSEC
0
SECTION
2
BLOCKS
0
BLOCK
2
*D0
70
65
10
0.000000
20
0.000000
3
0
0
LINE
6
CONTINUOUS
48
1
8
作画層１
62
7
10
613.0789138626111
20
160.52860025095197
11
613.0789138626111
21
143.29730415699885
0
TEXT
6
CONTINUOUS
8
作画層１
62
7
10
612.0789138626111
20
145.91295220397541
40
2
41
1
50
90
51
0
7
EXTFONT
1
17.23～32.23
72
5
11
612.0789138626111
21
157.91295220397541
0
LINE
6
CONTINUOUS
48
1
8
作画層１
62
7
10
592.92823040315341
20
160.52860025095197
11
615.0789138626111
21
160.52860025095197
0
LINE
6
CONTINUOUS
48
1
8
作画層１
62
7
10
608.5789138626111
20
143.29730415699885
11
615.0789138626111
21
143.29730415699885
0
ENDBLK
0
BLOCK
2
*D1
70
65
10
0.000000
20
0.000000
3
1
0
LINE
6
CONTINUOUS
48
1
8
作画層１
62
7
10
461.27891912731718
20
173.29730515699896
11
461.27891912731718
21
148.29730415699902
0
TEXT
6
CONTINUOUS
8
作画層１
62
7
10
460.27891912731729
20
159.79730465699902
40
2
41
1
50
90
51
0
7
EXTFONT
1
25
72
5
11
460.27891912731729
21
161.79730465699902
0
LINE
6
CONTINUOUS
48
1
8
作画層１
62
7
10
470.77891618614058
20
173.29730515699896
11
459.27891912731718
21
173.29730515699896
0
LINE
6
CONTINUOUS
48
1
8
作画層１
62
7
10
470.77891912731718
20
148.29730415699902
11
459.27891912731718
21
148.29730415699902
0
ENDBLK
0
BLOCK
2
*D2
70
65
10
0.000000
20
0.000000
3
2
0
LINE
6
CONTINUOUS
48
1
8
作画層１
62
7
10
471.27891618614058
20
183.29730515699896
11
496.2789163626112
21
183.29730515699896
0
TEXT
6
CONTINUOUS
8
作画層１
62
7
10
482.77891627437589
20
184.29730515699896
40
2
41
1
50
0
51
0
7
EXTFONT
1
25
72
5
11
484.77891627437589
21
184.29730515699896
0
LINE
6
CONTINUOUS
48
1
8
作画層１
62
7
10
471.27891618614058
20
173.79730515699896
11
471.27891618614058
21
185.29730515699896
0
LINE
6
CONTINUOUS
48
1
8
作画層１
62
7
10
496.2789163626112
20
173.79730515699896
11
496.2789163626112
21
185.29730515699896
0
ENDBLK
0
BLOCK
2
*D3
70
65
10
0.000000
20
0.000000
3
3
0
LINE
6
CONTINUOUS
48
1
8
作画層１
62
7
10
490.77891627437589
20
178.29730515699896
11
480.77891627437589
21
178.29730515699896
0
TEXT
6
CONTINUOUS
8
作画層１
62
7
10
486.77891627437589
20
179.29730515699896
40
2
41
1
50
0
51
0
7
EXTFONT
1
1.65
72
5
11
490.77891627437589
21
179.29730515699896
0
LINE
6
CONTINUOUS
48
1
8
作画層１
62
7
10
485.42823040315341
20
161.27860025095208
11
485.42823040315341
21
180.29730515699896
0
LINE
6
CONTINUOUS
48
1
8
作画層１
62
7
10
483.77891627437589
20
178.79730515699896
11
483.77891627437589
21
180.29730515699896
0
ENDBLK
0
BLOCK
2
*D4
70
65
10
0.000000
20
0.000000
3
4
0
LINE
6
CONTINUOUS
48
1
8
作画層１
62
7
10
466.27891618614058
20
160.52860025095208
11
466.27891618614058
21
173.29730515699896
0
TEXT
6
CONTINUOUS
8
作画層１
62
7
10
465.27891618614058
20
164.41295270397552
40
2
41
1
50
90
51
0
7
EXTFONT
1
12.77
72
5
11
465.27891618614058
21
169.41295270397552
0
LINE
6
CONTINUOUS
48
1
8
作画層１
62
7
10
484.92823040315352
20
160.52860025095208
11
464.27891618614058
21
160.52860025095208
0
LINE
6
CONTINUOUS
48
1
8
作画層１
62
7
10
470.77891618614058
20
173.29730515699896
11
464.27891618614058
21
173.29730515699896
0
ENDBLK
0
ENDSEC
0
SECTION
2
ENTITIES
0
CIRCLE
6
CONTINUOUS
48
1
8
作画層１
62
16
10
584.02891386261115
20
92.197304156998825
40
0.8
0
CIRCLE
6
CONTINUOUS
48
1
8
作画層１
62
16
10
597.52891386261115
20
92.197304156998825
40
0.8
0
CIRCLE
6
CONTINUOUS
48
1
8
作画層１
62
16
10
584.02891386261115
20
92.197304156998825
40
1.2
0
CIRCLE
6
CONTINUOUS
48
1
8
作画層１
62
16
10
597.52891386261115
20
92.197304156998825
40
1.2
0
LINE
6
CONTINUOUS
48
1
8
作画層１
62
16
10
573.47891386261119
20
90.197304156998825
11
573.47891386261119
21
143.29730415699885
0
LINE
6
CONTINUOUS
48
1
8
作画層１
62
16
10
608.0789138626111
20
90.197304156998825
11
573.47891386261119
21
90.197304156998825
0
LINE
6
CONTINUOUS
48
1
8
作画層１
62
16
10
608.0789138626111
20
143.29730415699885
11
608.0789138626111
21
90.197304156998825
0
LINE
6
CONTINUOUS
48
1
8
FRAME
62
16
10
592.78178812294277
20
169.55333292273065
11
592.07468134175622
21
169.55333292273065
0
LINE
6
CONTINUOUS
48
1
8
FRAME
62
16
10
601.95299234029665
20
159.67508045491911
11
601.95299234029665
21
160.38218723610566
0
LINE
6
CONTINUOUS
48
1
8
FRAME
62
16
10
582.90350638976679
20
160.3821579707411
11
582.90350638976679
21
159.67505118955455
0
LINE
6
CONTINUOUS
48
1
8
作画層１
62
16
10
582.90350638976679
20
160.3821579707411
11
592.07468134175622
21
169.55333292273065
0
LINE
6
CONTINUOUS
48
1
8
作画層１
62
16
10
592.78178812294277
20
169.55333292273065
11
601.95299234029665
21
160.38218723610566
0
LINE
6
CONTINUOUS
48
1
8
作画層１
62
16
10
588.27891386261115
20
154.29964371671019
11
582.90350638976679
21
159.67505118955455
0
LINE
6
CONTINUOUS
48
1
8
作画層１
62
16
10
593.27891386261115
20
151.00100197723361
11
601.95299234029665
21
159.67508045491911
0
LINE
6
CONTINUOUS
48
1
8
作画層１
62
16
10
593.27891386261115
20
143.29730415699885
11
593.27891386261115
21
151.00100197723361
0
LINE
6
CONTINUOUS
48
1
8
作画層１
62
16
10
588.27891386261115
20
143.29730415699885
11
588.27891386261115
21
154.29964371671019
0
LINE
6
CONTINUOUS
48
1
8
作画層１
62
16
10
608.0789138626111
20
143.29730415699885
11
593.27891386261115
21
143.29730415699885
0
LINE
6
CONTINUOUS
48
1
8
作画層１
62
16
10
573.47891386261119
20
143.29730415699885
11
588.27891386261115
21
143.29730415699885
0
CIRCLE
6
CONTINUOUS
48
1
8
作画層１
62
16
10
584.02891386261115
20
92.197304156998825
40
1.6000000000000001
0
CIRCLE
6
CONTINUOUS
48
1
8
作画層１
62
16
10
597.52891386261115
20
92.197304156998825
40
1.6000000000000001
0
CIRCLE
6
CONTINUOUS
48
1
8
作画層１
62
16
10
584.02891386261115
20
141.0973041569988
40
0.8
0
CIRCLE
6
CONTINUOUS
48
1
8
作画層１
62
16
10
597.52891386261115
20
141.0973041569988
40
0.8
0
CIRCLE
6
CONTINUOUS
48
1
8
作画層１
62
16
10
584.02891386261115
20
141.0973041569988
40
1.2
0
CIRCLE
6
CONTINUOUS
48
1
8
作画層１
62
16
10
584.02891386261115
20
141.0973041569988
40
1.6000000000000001
0
ARC
6
CONTINUOUS
48
1
8
作画層１
62
16
10
597.52891386261115
20
141.0973041569988
40
1.2000000000000057
50
102.02469918056578
51
77.975300819434239
0
LINE
6
CONTINUOUS
48
1
8
作画層１
62
16
10
597.27891386261115
20
142.67765221992673
11
597.27891386261115
21
142.27097361642936
0
ARC
6
CONTINUOUS
48
1
8
作画層１
62
16
10
597.52891386261092
20
141.0973041569988
40
1.5999999999999783
50
98.989299345154691
51
81.010700654828923
0
LINE
6
CONTINUOUS
48
1
8
作画層１
62
16
10
597.77891386261115
20
142.67765221992667
11
597.77891386261115
21
142.27097361642936
0
LINE
6
CONTINUOUS
48
1
8
作画層１
62
7
10
583.75926230917742
20
139.9279932318135
11
584.13573734780698
21
140.30446827044307
0
LINE
6
CONTINUOUS
48
1
8
作画層１
62
7
10
584.82174974916688
20
140.99048067180291
11
585.19822478779645
21
141.36695571043248
0
LINE
6
CONTINUOUS
48
1
8
作画層１
62
7
10
582.86575287352764
20
140.80225074913011
11
583.23209664101967
21
141.16859451662214
0
LINE
6
CONTINUOUS
48
1
8
作画層１
62
7
10
583.95762350298776
20
141.89412137859028
11
584.3239672704799
21
142.26046514608242
0
LINE
6
CONTINUOUS
48
1
8
作画層１
62
7
10
584.37792187625212
20
91.049178115829974
11
585.17703990377993
21
91.848296143357786
0
LINE
6
CONTINUOUS
48
1
8
作画層１
62
7
10
583.05592835082405
20
91.494951543368146
11
583.34433476360221
21
91.783357956146347
0
LINE
6
CONTINUOUS
48
1
8
作画層１
62
7
10
584.44286006346363
20
92.881883256007754
11
584.7312664762419
21
93.170289668786054
0
LINE
6
CONTINUOUS
48
1
8
作画層１
62
7
10
596.88671810679398
20
91.183605675607225
11
597.18034656465113
21
91.477234133464378
0
LINE
6
CONTINUOUS
48
1
8
作画層１
62
7
10
598.24898388614554
20
92.545871454958785
11
598.54261234400269
21
92.83949991281591
0
LINE
6
CONTINUOUS
48
1
8
作画層１
62
7
10
596.34848355088081
20
92.413138072660388
11
597.31307994694953
21
93.377734468729102
0
LINE
6
CONTINUOUS
48
1
8
作画層１
62
7
10
606.5951092881179
20
90.197304156998769
11
608.0789138626111
21
91.681108731491975
0
LINE
6
CONTINUOUS
48
1
8
作画層１
62
7
10
604.82734233515157
20
90.197304156998882
11
608.0789138626111
21
93.448875684458415
0
LINE
6
CONTINUOUS
48
1
8
作画層１
62
7
10
603.05957538218513
20
90.197304156998769
11
608.0789138626111
21
95.216642637424741
0
LINE
6
CONTINUOUS
48
1
8
作画層１
62
7
10
601.29180842921892
20
90.197304156998882
11
608.0789138626111
21
96.984409590391067
0
LINE
6
CONTINUOUS
48
1
8
作画層１
62
7
10
599.52404147625259
20
90.197304156998769
11
608.0789138626111
21
98.75217654335728
0
LINE
6
CONTINUOUS
48
1
8
作画層１
62
7
10
597.75627452328627
20
90.197304156998882
11
598.44330515205763
21
90.884334785770235
0
LINE
6
CONTINUOUS
48
1
8
作画層１
62
7
10
598.84188323383978
20
91.282912867552383
11
608.0789138626111
21
100.51994349632372
0
LINE
6
CONTINUOUS
48
1
8
作画層１
62
7
10
595.98850757031971
20
90.197304156998825
11
596.65092309875229
21
90.859719685431372
0
LINE
6
CONTINUOUS
48
1
8
作画層１
62
7
10
598.86649833417857
20
93.075294920857715
11
608.0789138626111
21
102.28771044929022
0
LINE
6
CONTINUOUS
48
1
8
作画層１
62
7
10
594.22074061735339
20
90.197304156998769
11
595.95169632288662
21
91.928259862531974
0
LINE
6
CONTINUOUS
48
1
8
作画層１
62
7
10
597.79795815707803
20
93.774521696723397
11
608.0789138626111
21
104.05547740225649
0
LINE
6
CONTINUOUS
48
1
8
作画層１
62
7
10
592.45297366438706
20
90.197304156998882
11
608.0789138626111
21
105.82324435522293
0
LINE
6
CONTINUOUS
48
1
8
作画層１
62
7
10
590.68520671142073
20
90.197304156998882
11
608.0789138626111
21
107.59101130818925
0
LINE
6
CONTINUOUS
48
1
8
作画層１
62
7
10
588.91743975845429
20
90.197304156998769
11
608.0789138626111
21
109.35877826115558
0
LINE
6
CONTINUOUS
48
1
8
作画層１
62
7
10
587.14967280548785
20
90.197304156998769
11
608.0789138626111
21
111.12654521412202
0
LINE
6
CONTINUOUS
48
1
8
作画層１
62
7
10
585.38190585252164
20
90.197304156998825
11
608.0789138626111
21
112.89431216708829
0
LINE
6
CONTINUOUS
48
1
8
作画層１
62
7
10
583.6141388995552
20
90.197304156998825
11
584.01420649679847
21
90.597371754242104
0
LINE
6
CONTINUOUS
48
1
8
作画層１
62
7
10
585.62884626536788
20
92.212011522811508
11
608.0789138626111
21
114.66207912005473
0
LINE
6
CONTINUOUS
48
1
8
作画層１
62
7
10
581.84637194658876
20
90.197304156998769
11
582.80995961030862
21
91.16089182071866
0
LINE
6
CONTINUOUS
48
1
8
作画層１
62
7
10
585.06532619889128
20
93.416258409301307
11
608.0789138626111
21
116.42984607302111
0
LINE
6
CONTINUOUS
48
1
8
作画層１
62
7
10
580.07860499362243
20
90.197304156998825
11
582.48010985835663
21
92.598809021733047
0
LINE
6
CONTINUOUS
48
1
8
作画層１
62
7
10
583.62740899787684
20
93.746108161253275
11
608.0789138626111
21
118.19761302598749
0
LINE
6
CONTINUOUS
48
1
8
作画層１
62
7
10
578.31083804065599
20
90.197304156998882
11
608.0789138626111
21
119.96537997895399
0
LINE
6
CONTINUOUS
48
1
8
作画層１
62
7
10
576.54307108768967
20
90.197304156998882
11
608.0789138626111
21
121.73314693192032
0
LINE
6
CONTINUOUS
48
1
8
作画層１
62
7
10
574.77530413472323
20
90.197304156998769
11
608.0789138626111
21
123.50091388488664
0
LINE
6
CONTINUOUS
48
1
8
作画層１
62
7
10
573.47891386261119
20
90.66868083785306
11
608.0789138626111
21
125.26868083785297
0
LINE
6
CONTINUOUS
48
1
8
作画層１
62
7
10
573.47891386261119
20
92.436447790819386
11
608.0789138626111
21
127.0364477908193
0
LINE
6
CONTINUOUS
48
1
8
作画層１
62
7
10
573.47891386261119
20
94.20421474378594
11
608.0789138626111
21
128.80421474378585
0
LINE
6
CONTINUOUS
48
1
8
作画層１
62
7
10
573.47891386261119
20
95.97198169675238
11
608.0789138626111
21
130.57198169675229
0
LINE
6
CONTINUOUS
48
1
8
作画層１
62
7
10
573.47891386261119
20
97.739748649718649
11
608.0789138626111
21
132.33974864971856
0
LINE
6
CONTINUOUS
48
1
8
作画層１
62
7
10
573.47891386261119
20
99.507515602685032
11
608.0789138626111
21
134.10751560268494
0
LINE
6
CONTINUOUS
48
1
8
作画層１
62
7
10
573.47891386261119
20
101.27528255565142
11
608.0789138626111
21
135.87528255565132
0
LINE
6
CONTINUOUS
48
1
8
作画層１
62
7
10
573.47891386261119
20
103.0430495086178
11
608.0789138626111
21
137.64304950861771
0
LINE
6
CONTINUOUS
48
1
8
作画層１
62
7
10
573.47891386261119
20
104.81081646158424
11
608.0789138626111
21
139.41081646158415
0
LINE
6
CONTINUOUS
48
1
8
作画層１
62
7
10
573.47891386261119
20
106.57858341455056
11
608.0789138626111
21
141.17858341455047
0
LINE
6
CONTINUOUS
48
1
8
作画層１
62
7
10
573.47891386261119
20
108.346350367517
11
608.0789138626111
21
142.94635036751691
0
LINE
6
CONTINUOUS
48
1
8
作画層１
62
7
10
573.47891386261119
20
110.11411732048333
11
606.66210069912677
21
143.29730415699891
0
LINE
6
CONTINUOUS
48
1
8
作画層１
62
7
10
573.47891386261119
20
111.88188427344977
11
604.89433374616033
21
143.29730415699891
0
LINE
6
CONTINUOUS
48
1
8
作画層１
62
7
10
573.47891386261119
20
113.64965122641604
11
603.126566793194
21
143.29730415699885
0
LINE
6
CONTINUOUS
48
1
8
作画層１
62
7
10
573.47891386261119
20
115.41741817938254
11
597.55908432068668
21
139.49758863745802
0
LINE
6
CONTINUOUS
48
1
8
作画層１
62
7
10
598.10749288421516
20
140.04599720098651
11
598.5802208186235
21
140.51872513539482
0
LINE
6
CONTINUOUS
48
1
8
作画層１
62
7
10
599.12862938215176
20
141.0671336989231
11
601.35879984022745
21
143.29730415699879
0
LINE
6
CONTINUOUS
48
1
8
作画層１
62
7
10
573.47891386261119
20
117.18518513234886
11
596.33070493512264
21
140.03697620486028
0
LINE
6
CONTINUOUS
48
1
8
作画層１
62
7
10
596.61425048346507
20
140.32052175320277
11
596.89850457868909
21
140.60477584842675
0
LINE
6
CONTINUOUS
48
1
8
作画層１
62
7
10
598.02144217118325
20
141.72771344092089
11
598.30569626640715
21
142.01196753614479
0
LINE
6
CONTINUOUS
48
1
8
作画層１
62
7
10
598.58924181474947
20
142.29551308448714
11
599.59103288726124
21
143.29730415699891
0
LINE
6
CONTINUOUS
48
1
8
作画層１
62
7
10
573.47891386261119
20
118.95295208531525
11
595.96606818299858
21
141.44010640570264
0
LINE
6
CONTINUOUS
48
1
8
作画層１
62
7
10
597.18611161390709
20
142.6601498366112
11
597.8232659342948
21
143.29730415699885
0
LINE
6
CONTINUOUS
48
1
8
作画層１
62
7
10
573.47891386261119
20
120.72071903828152
11
596.05549898132847
21
143.29730415699879
0
LINE
6
CONTINUOUS
48
1
8
作画層１
62
7
10
573.47891386261119
20
122.48848599124807
11
594.28773202836192
21
143.29730415699879
0
LINE
6
CONTINUOUS
48
1
8
作画層１
62
7
10
573.47891386261119
20
124.2562529442144
11
593.27891386261115
21
144.05625294421435
0
LINE
6
CONTINUOUS
48
1
8
作画層１
62
7
10
573.47891386261119
20
126.02401989718078
11
593.27891386261115
21
145.82401989718073
0
LINE
6
CONTINUOUS
48
1
8
作画層１
62
7
10
573.47891386261119
20
127.79178685014705
11
593.27891386261115
21
147.591786850147
0
LINE
6
CONTINUOUS
48
1
8
作画層１
62
7
10
573.47891386261119
20
129.5595538031136
11
583.50490529884462
21
139.58554523934703
0
LINE
6
CONTINUOUS
48
1
8
作画層１
62
7
10
585.54067278026287
20
141.62131272076527
11
587.21666421649638
21
143.29730415699879
0
LINE
6
CONTINUOUS
48
1
8
作画層１
62
7
10
588.27891386261115
20
144.35955380311356
11
593.27891386261115
21
149.35955380311356
0
LINE
6
CONTINUOUS
48
1
8
作画層１
62
7
10
573.47891386261119
20
131.32732075607993
11
582.57688224586445
21
140.42528913933324
0
LINE
6
CONTINUOUS
48
1
8
作画層１
62
7
10
584.70092888027671
20
142.54933577374544
11
585.44889726353017
21
143.29730415699891
0
LINE
6
CONTINUOUS
48
1
8
作画層１
62
7
10
588.27891386261115
20
146.12732075607988
11
601.95299234029665
21
159.80139923376538
0
LINE
6
CONTINUOUS
48
1
8
作画層１
62
7
10
573.47891386261119
20
133.09508770904637
11
583.68113031056373
21
143.29730415699891
0
LINE
6
CONTINUOUS
48
1
8
作画層１
62
7
10
588.27891386261115
20
147.89508770904632
11
601.35950097114915
21
160.97567481758432
0
LINE
6
CONTINUOUS
48
1
8
作画層１
62
7
10
573.47891386261119
20
134.86285466201281
11
581.91336335759718
21
143.29730415699879
0
LINE
6
CONTINUOUS
48
1
8
作画層１
62
7
10
588.27891386261115
20
149.66285466201276
11
600.47561467417984
21
161.85955547358145
0
LINE
6
CONTINUOUS
48
1
8
作画層１
62
7
10
573.47891386261119
20
136.63062161497913
11
580.14559640463085
21
143.29730415699879
0
LINE
6
CONTINUOUS
48
1
8
作画層１
62
7
10
588.27891386261115
20
151.43062161497909
11
599.59172837721053
21
162.74343612957847
0
LINE
6
CONTINUOUS
48
1
8
作画層１
62
7
10
573.47891386261119
20
138.39838856794546
11
578.37782945166464
21
143.29730415699891
0
LINE
6
CONTINUOUS
48
1
8
作画層１
62
7
10
588.27891386261115
20
153.19838856794541
11
598.70784208024111
21
163.62731678557537
0
LINE
6
CONTINUOUS
48
1
8
作画層１
62
7
10
573.47891386261119
20
140.16615552091184
11
576.6100624986982
21
143.29730415699885
0
LINE
6
CONTINUOUS
48
1
8
作画層１
62
7
10
587.94565796051029
20
154.63289961881094
11
597.82395578327191
21
164.51119744157256
0
LINE
6
CONTINUOUS
48
1
8
作画層１
62
7
10
573.47891386261119
20
141.9339224738784
11
574.84229554573164
21
143.29730415699885
0
LINE
6
CONTINUOUS
48
1
8
作画層１
62
7
10
587.06177448402707
20
155.51678309529427
11
596.94006948630238
21
165.39507809756958
0
LINE
6
CONTINUOUS
48
1
8
作画層１
62
7
10
586.17789100754396
20
156.40066657177738
11
596.05618318933307
21
166.27895875356649
0
LINE
6
CONTINUOUS
48
1
8
作画層１
62
7
10
585.29400753106063
20
157.28455004826054
11
595.17229689236376
21
167.16283940956367
0
LINE
6
CONTINUOUS
48
1
8
作画層１
62
7
10
584.41012405457752
20
158.16843352474376
11
594.28841059539434
21
168.04672006556058
0
LINE
6
CONTINUOUS
48
1
8
作画層１
62
7
10
583.52624057809453
20
159.0523170012271
11
593.40452429842514
21
168.93060072155771
0
LINE
6
CONTINUOUS
48
1
8
作画層１
62
7
10
582.90350638976679
20
160.19734976586579
11
592.25948954663158
21
169.55333292273059
0
CIRCLE
6
CONTINUOUS
48
1
8
作画層１
62
7
10
592.42823040315352
20
160.52860025095202
40
0.25
0
LINE
6
CONTINUOUS
48
1
8
作画層１
62
7
10
592.25145370785685
20
160.35182355565541
11
592.60500709845019
21
160.70537694624863
0
LINE
6
CONTINUOUS
48
1
8
作画層１
62
7
10
592.25145370785685
20
160.70537694624863
11
592.60500709845019
21
160.35182355565541
0
CIRCLE
6
CONTINUOUS
48
1
8
作画層１
62
7
10
590.77891700967018
20
160.79730606079102
40
0.25
0
LINE
6
CONTINUOUS
48
1
8
作画層１
62
7
10
591.02891700967018
20
160.79730606079107
11
590.52891700967018
21
160.79730606079107
0
LINE
6
CONTINUOUS
48
1
8
作画層１
62
7
10
590.77891700967018
20
161.04730606079102
11
590.77891700967018
21
160.54730606079102
0
POLYLINE
6
CONTINUOUS
48
1
8
作画層１
62
7
66
1
0
VERTEX
6
CONTINUOUS
8
作画層１
62
7
10
592.42823040315352
20
160.77860025095202
0
VERTEX
6
CONTINUOUS
8
作画層１
62
7
10
592.42823040315352
20
175.77860025095202
0
SEQEND
0
LINE
6
CONTINUOUS
48
1
8
作画層１
62
7
10
592.42823040315352
20
160.77860025095202
11
591.88823040315344
21
162.77860025095202
0
LINE
6
CONTINUOUS
48
1
8
作画層１
62
7
10
592.42823040315352
20
160.77860025095202
11
592.9682304031536
21
162.77860025095202
0
LINE
6
CONTINUOUS
48
1
8
作画層１
62
6
10
584.02891386261115
20
142.5973041569988
11
584.02891386261115
21
139.5973041569988
0
LINE
6
CONTINUOUS
48
1
8
作画層１
62
6
10
585.52891386261115
20
141.0973041569988
11
582.52891386261115
21
141.0973041569988
0
LINE
6
CONTINUOUS
48
1
8
作画層１
62
6
10
582.52891386261115
20
141.0973041569988
11
584.02891386261115
21
142.5973041569988
0
LINE
6
CONTINUOUS
48
1
8
作画層１
62
6
10
584.02891386261115
20
142.5973041569988
11
585.52891386261115
21
141.0973041569988
0
LINE
6
CONTINUOUS
48
1
8
作画層１
62
6
10
582.52891386261115
20
141.0973041569988
11
584.02891386261115
21
139.5973041569988
0
LINE
6
CONTINUOUS
48
1
8
作画層１
62
6
10
584.02891386261115
20
139.59730415699869
11
585.52891386261115
21
141.0973041569988
0
LINE
6
CONTINUOUS
48
1
8
作画層１
62
6
10
597.52891386261115
20
142.5973041569988
11
597.52891386261115
21
139.5973041569988
0
LINE
6
CONTINUOUS
48
1
8
作画層１
62
6
10
599.02891386261115
20
141.0973041569988
11
596.02891386261115
21
141.0973041569988
0
LINE
6
CONTINUOUS
48
1
8
作画層１
62
6
10
596.02891386261115
20
141.0973041569988
11
597.52891386261115
21
142.5973041569988
0
LINE
6
CONTINUOUS
48
1
8
作画層１
62
6
10
597.52891386261115
20
142.5973041569988
11
599.02891386261115
21
141.0973041569988
0
LINE
6
CONTINUOUS
48
1
8
作画層１
62
6
10
596.02891386261115
20
141.0973041569988
11
597.52891386261115
21
139.5973041569988
0
LINE
6
CONTINUOUS
48
1
8
作画層１
62
6
10
597.52891386261115
20
139.59730415699869
11
599.02891386261115
21
141.0973041569988
0
LINE
6
CONTINUOUS
48
1
8
作画層１
62
6
10
584.02891386261115
20
93.697304156998825
11
584.02891386261115
21
90.697304156998825
0
LINE
6
CONTINUOUS
48
1
8
作画層１
62
6
10
585.52891386261115
20
92.197304156998825
11
582.52891386261115
21
92.197304156998825
0
LINE
6
CONTINUOUS
48
1
8
作画層１
62
6
10
582.52891386261115
20
92.197304156998825
11
584.02891386261115
21
93.697304156998825
0
LINE
6
CONTINUOUS
48
1
8
作画層１
62
6
10
584.02891386261115
20
93.697304156998825
11
585.52891386261115
21
92.197304156998825
0
LINE
6
CONTINUOUS
48
1
8
作画層１
62
6
10
582.52891386261115
20
92.197304156998825
11
584.02891386261115
21
90.697304156998825
0
LINE
6
CONTINUOUS
48
1
8
作画層１
62
6
10
584.02891386261115
20
90.697304156998712
11
585.52891386261115
21
92.197304156998825
0
LINE
6
CONTINUOUS
48
1
8
作画層１
62
6
10
597.52891386261115
20
93.697304156998825
11
597.52891386261115
21
90.697304156998825
0
LINE
6
CONTINUOUS
48
1
8
作画層１
62
6
10
599.02891386261115
20
92.197304156998825
11
596.02891386261115
21
92.197304156998825
0
LINE
6
CONTINUOUS
48
1
8
作画層１
62
6
10
596.02891386261115
20
92.197304156998825
11
597.52891386261115
21
93.697304156998825
0
LINE
6
CONTINUOUS
48
1
8
作画層１
62
6
10
597.52891386261115
20
93.697304156998825
11
599.02891386261115
21
92.197304156998825
0
LINE
6
CONTINUOUS
48
1
8
作画層１
62
6
10
596.02891386261115
20
92.197304156998825
11
597.52891386261115
21
90.697304156998825
0
LINE
6
CONTINUOUS
48
1
8
作画層１
62
6
10
597.52891386261115
20
90.697304156998712
11
599.02891386261115
21
92.197304156998825
0
LINE
6
CENTER
48
1
8
作画層１
62
7
10
590.77891627437589
20
85.19730415699884
11
590.77891627437589
21
178.29730515699896
0
TEXT
6
CONTINUOUS
8
作画層１
62
7
10
592.42823040315352
20
175.77860025095202
40
2
41
1
50
0
51
0
7
BIGFONT
1
モジュール中心点
72
5
11
608.42823040315352
21
175.77860025095202
0
LINE
6
CONTINUOUS
48
1
8
作画層１
62
7
10
592.42823040315352
20
175.77860025095202
11
608.42823040315352
21
175.77860025095202
0
DIMENSION
8
作画層１
2
*D0
10
613.0789138626111
20
160.52860025095197
11
613.0789138626111
21
143.29730415699885
13
592.42823040315341
23
160.52860025095197
14
608.0789138626111
24
143.29730415699885
50
90
0
TEXT
6
CONTINUOUS
8
作画層１
62
16
10
608.0789138626111
20
80.197304156998825
40
2
41
1
50
0
51
0
7
EXTFONT
1
[mm]
72
5
11
612.0789138626111
21
80.197304156998825
0
CIRCLE
6
CONTINUOUS
48
1
8
作画層１
62
16
10
530.52891386261115
20
92.197304156998825
40
0.8
0
CIRCLE
6
CONTINUOUS
48
1
8
作画層１
62
16
10
530.52891386261115
20
141.09730415699886
40
0.8
0
CIRCLE
6
CONTINUOUS
48
1
8
作画層１
62
16
10
544.02891386261115
20
92.197304156998825
40
0.8
0
CIRCLE
6
CONTINUOUS
48
1
8
作画層１
62
16
10
544.02891386261115
20
141.09730415699886
40
0.8
0
ARC
6
CONTINUOUS
48
1
8
作画層１
62
16
10
544.02891386261115
20
92.197304156998854
40
1.2000000000000171
50
270
51
90
0
ARC
6
CONTINUOUS
48
1
8
作画層１
62
16
10
530.52891386261115
20
92.197304156998882
40
1.1999999999999886
50
90
51
270
0
LINE
6
CONTINUOUS
48
1
8
作画層１
62
16
10
530.52891386261115
20
93.397304156998871
11
544.02891386261115
21
93.397304156998871
0
LINE
6
CONTINUOUS
48
1
8
作画層１
62
16
10
530.52891386261115
20
90.997304156998894
11
544.02891386261115
21
90.997304156998837
0
ARC
6
CONTINUOUS
48
1
8
作画層１
62
16
10
530.52891386261115
20
141.09730415699886
40
1.1999999999999225
50
12.024699180566612
51
347.97530081943341
0
ARC
6
CONTINUOUS
48
1
8
作画層１
62
16
10
544.02891386261115
20
141.09730415699886
40
1.1999999999999225
50
192.02469918056659
51
167.97530081943339
0
LINE
6
CONTINUOUS
48
1
8
作画層１
62
16
10
534.77891386261115
20
140.84730415699886
11
535.27891386261115
21
141.34730415699886
0
LINE
6
CONTINUOUS
48
1
8
作画層１
62
16
10
534.77891386261115
20
141.34730415699886
11
531.70258332204162
21
141.34730415699886
0
LINE
6
CONTINUOUS
48
1
8
作画層１
62
16
10
534.77891386261115
20
140.84730415699886
11
531.70258332204162
21
140.84730415699886
0
LINE
6
CONTINUOUS
48
1
8
作画層１
62
16
10
539.27891386261115
20
141.34730415699886
11
539.77891386261115
21
140.84730415699886
0
LINE
6
CONTINUOUS
48
1
8
作画層１
62
16
10
539.77891386261115
20
141.34730415699886
11
542.85524440318068
21
141.34730415699886
0
LINE
6
CONTINUOUS
48
1
8
作画層１
62
16
10
539.77891386261115
20
140.84730415699886
11
542.85524440318068
21
140.84730415699886
0
LINE
6
CONTINUOUS
48
1
8
作画層１
62
7
10
543.46214116039016
20
90.997304156998894
11
543.87674632871176
21
91.411909325320536
0
LINE
6
CONTINUOUS
48
1
8
作画層１
62
7
10
544.81430869428948
20
92.34947169089817
11
545.13277321478267
21
92.667936211391378
0
LINE
6
CONTINUOUS
48
1
8
作画層１
62
7
10
541.69437420742383
20
90.997304156998837
11
544.09267885394729
21
93.395608803522393
0
LINE
6
CONTINUOUS
48
1
8
作画層１
62
7
10
539.92660725445751
20
90.997304156998894
11
542.32660725445749
21
93.397304156998871
0
LINE
6
CONTINUOUS
48
1
8
作画層１
62
7
10
538.15884030149095
20
90.997304156998837
11
540.55884030149105
21
93.397304156998871
0
LINE
6
CONTINUOUS
48
1
8
作画層１
62
7
10
536.39107334852474
20
90.997304156998894
11
538.79107334852483
21
93.397304156998871
0
LINE
6
CONTINUOUS
48
1
8
作画層１
62
7
10
534.62330639555842
20
90.997304156998837
11
537.02330639555839
21
93.397304156998871
0
LINE
6
CONTINUOUS
48
1
8
作画層１
62
7
10
532.85553944259209
20
90.997304156998894
11
535.25553944259207
21
93.397304156998871
0
LINE
6
CONTINUOUS
48
1
8
作画層１
62
7
10
531.08777248962565
20
90.997304156998894
11
533.48777248962574
21
93.397304156998871
0
LINE
6
CONTINUOUS
48
1
8
作画層１
62
7
10
529.67594325286927
20
91.353241873208731
11
529.95879181082398
21
91.636090431163439
0
LINE
6
CONTINUOUS
48
1
8
作画層１
62
7
10
531.09012758844653
20
92.767426208785992
11
531.72000553665941
21
93.397304156998871
0
LINE
6
CONTINUOUS
48
1
8
作画層１
62
6
10
530.52891386261115
20
93.697304156998825
11
530.52891386261115
21
90.697304156998825
0
LINE
6
CONTINUOUS
48
1
8
作画層１
62
6
10
532.02891386261115
20
92.197304156998825
11
529.02891386261115
21
92.197304156998825
0
LINE
6
CONTINUOUS
48
1
8
作画層１
62
6
10
529.02891386261115
20
92.197304156998825
11
530.52891386261115
21
93.697304156998825
0
LINE
6
CONTINUOUS
48
1
8
作画層１
62
6
10
530.52891386261115
20
93.697304156998825
11
532.02891386261115
21
92.197304156998825
0
LINE
6
CONTINUOUS
48
1
8
作画層１
62
6
10
529.02891386261115
20
92.197304156998825
11
530.52891386261115
21
90.697304156998825
0
LINE
6
CONTINUOUS
48
1
8
作画層１
62
6
10
530.52891386261115
20
90.697304156998712
11
532.02891386261115
21
92.197304156998825
0
LINE
6
CONTINUOUS
48
1
8
作画層１
62
6
10
544.02891386261115
20
93.697304156998825
11
544.02891386261115
21
90.697304156998825
0
LINE
6
CONTINUOUS
48
1
8
作画層１
62
6
10
545.52891386261115
20
92.197304156998825
11
542.52891386261115
21
92.197304156998825
0
LINE
6
CONTINUOUS
48
1
8
作画層１
62
6
10
542.52891386261115
20
92.197304156998825
11
544.02891386261115
21
93.697304156998825
0
LINE
6
CONTINUOUS
48
1
8
作画層１
62
6
10
544.02891386261115
20
93.697304156998825
11
545.52891386261115
21
92.197304156998825
0
LINE
6
CONTINUOUS
48
1
8
作画層１
62
6
10
542.52891386261115
20
92.197304156998825
11
544.02891386261115
21
90.697304156998825
0
LINE
6
CONTINUOUS
48
1
8
作画層１
62
6
10
544.02891386261115
20
90.697304156998712
11
545.52891386261115
21
92.197304156998825
0
LINE
6
CONTINUOUS
48
1
8
SONNET_Copper_1
62
16
10
534.11990862028074
20
155.45864895904032
11
534.47346201087396
21
155.81220234963359
0
LINE
6
CONTINUOUS
48
1
8
SONNET_Copper_1
62
16
10
543.64466622822795
20
164.98340656698741
11
543.99821961882117
21
165.33695995758069
0
ARC
6
CONTINUOUS
48
1
8
SONNET_Copper_1
62
16
10
544.31641767035535
20
165.01876190604688
40
0.450000000000072
50
314.99999999999233
51
135.00000000003581
0
LINE
6
CONTINUOUS
48
1
8
SONNET_Copper_1
62
16
10
544.28106233129608
20
164.34701046391956
11
544.63461572188908
21
164.70056385451272
0
ARC
6
CONTINUOUS
48
1
8
SONNET_Copper_1
62
16
10
543.96286427976213
20
164.66520851545334
40
0.4500000000000921
50
135.00000000001023
51
191.25101140409373
0
ARC
6
CONTINUOUS
48
1
8
SONNET_Copper_1
62
16
10
543.96286427976224
20
164.66520851545283
40
0.4499999999993377
50
258.74898859586523
51
315.00000000004604
0
LINE
6
CONTINUOUS
48
1
8
作画層１
62
16
10
543.52151245335892
20
164.57741007964364
11
539.27891386261115
21
160.33481148889587
0
LINE
6
CONTINUOUS
48
1
8
作画層１
62
16
10
543.87506584395237
20
164.22385668905042
11
539.77891386261115
21
160.12770470770931
0
ARC
6
CONTINUOUS
48
1
8
SONNET_Copper_1
62
16
10
534.43810667181481
20
155.14045090750636
40
0.4500000000000117
50
135.00000000002046
51
315.00000000001535
0
LINE
6
CONTINUOUS
48
1
8
SONNET_Copper_1
62
16
10
534.75630472334888
20
154.82225285597247
11
535.10985811394198
21
155.17580624656563
0
ARC
6
CONTINUOUS
48
1
8
SONNET_Copper_1
62
16
10
534.79166006240814
20
155.4940042980999
40
0.4500000000001121
50
314.99999999998727
51
326.25101140410021
0
ARC
6
CONTINUOUS
48
1
8
SONNET_Copper_1
62
16
10
534.79166006240814
20
155.49400429809984
40
0.4499999999999984
50
33.748952086977937
51
135.00000000004093
0
LINE
6
CONTINUOUS
48
1
8
作画層１
62
16
10
534.77891386261115
20
148.79730415699885
11
535.27891386261115
21
149.29730415699885
0
LINE
6
CONTINUOUS
48
1
8
作画層１
62
16
10
537.77891386261115
20
148.79730415699885
11
538.27891386261115
21
149.29730415699885
0
LINE
6
CONTINUOUS
48
1
8
作画層１
62
16
10
537.77891386261115
20
155.74400429809975
11
538.27891386261115
21
155.24400429809975
0
LINE
6
CONTINUOUS
48
1
8
作画層１
62
16
10
538.27891386261115
20
149.29730415699885
11
538.27891386261115
21
155.24400429809975
0
LINE
6
CONTINUOUS
48
1
8
作画層１
62
16
10
537.77891386261115
20
149.29730415699885
11
537.77891386261115
21
155.24400429809975
0
LINE
6
CONTINUOUS
48
1
8
作画層１
62
16
10
535.27891386261115
20
148.79730415699885
11
537.77891386261115
21
148.79730415699885
0
LINE
6
CONTINUOUS
48
1
8
作画層１
62
16
10
535.27891386261115
20
149.29730415699885
11
537.77891386261115
21
149.29730415699885
0
LINE
6
CONTINUOUS
48
1
8
作画層１
62
16
10
535.16582563457928
20
155.24400429809975
11
537.77891386261115
21
155.24400429809975
0
LINE
6
CONTINUOUS
48
1
8
作画層１
62
16
10
535.16582596759156
20
155.74400429809975
11
537.77891386261115
21
155.74400429809975
0
LINE
6
CONTINUOUS
48
1
8
作画層１
62
16
10
539.27891386261115
20
141.34730415699886
11
539.27891386261115
21
160.33481148889587
0
LINE
6
CONTINUOUS
48
1
8
作画層１
62
16
10
539.77891386261115
20
141.34730415699886
11
539.77891386261115
21
160.12770470770931
0
LINE
6
CONTINUOUS
48
1
8
作画層１
62
16
10
535.27891386261115
20
141.34730415699886
11
535.27891386261115
21
148.79730415699885
0
LINE
6
CONTINUOUS
48
1
8
作画層１
62
16
10
534.77891386261115
20
141.34730415699886
11
534.77891386261115
21
148.79730415699885
0
CIRCLE
6
CONTINUOUS
48
1
8
作画層１
62
7
10
538.92823040315352
20
160.52860025095208
40
0.25
0
LINE
6
CONTINUOUS
48
1
8
作画層１
62
7
10
538.75145370785685
20
160.35182355565547
11
539.10500709845019
21
160.70537694624869
0
LINE
6
CONTINUOUS
48
1
8
作画層１
62
7
10
538.75145370785685
20
160.70537694624869
11
539.10500709845019
21
160.35182355565547
0
LINE
6
CONTINUOUS
48
1
8
作画層１
62
7
10
533.50064953851438
20
140.84730415699886
11
534.00064953851438
21
141.34730415699886
0
LINE
6
CONTINUOUS
48
1
8
作画層１
62
7
10
534.77891386261115
20
142.12556848109568
11
535.27891386261115
21
142.62556848109568
0
LINE
6
CONTINUOUS
48
1
8
作画層１
62
7
10
530.81829824897466
20
139.93271982042558
11
531.69349819918443
21
140.80791977063535
0
LINE
6
CONTINUOUS
48
1
8
作画層１
62
7
10
531.73288258554794
20
140.84730415699886
11
532.23288258554794
21
141.34730415699886
0
LINE
6
CONTINUOUS
48
1
8
作画層１
62
7
10
534.77891386261115
20
143.89333543406201
11
535.27891386261115
21
144.39333543406201
0
LINE
6
CONTINUOUS
48
1
8
作画層１
62
7
10
529.53811867028548
20
140.42030719470267
11
529.82852356302431
21
140.71071208744155
0
LINE
6
CONTINUOUS
48
1
8
作画層１
62
7
10
530.91550593216846
20
141.7976944565857
11
531.20591082490728
21
142.08809934932458
0
LINE
6
CONTINUOUS
48
1
8
作画層１
62
7
10
534.77891386261115
20
145.66110238702834
11
535.27891386261115
21
146.16110238702834
0
LINE
6
CONTINUOUS
48
1
8
作画層１
62
7
10
534.77891386261115
20
147.42886933999478
11
535.27891386261115
21
147.92886933999478
0
LINE
6
CONTINUOUS
48
1
8
作画層１
62
7
10
536.14734867961522
20
148.79730415699885
11
536.64734867961522
21
149.29730415699885
0
LINE
6
CONTINUOUS
48
1
8
作画層１
62
7
10
537.77891386261115
20
150.42886933999478
11
538.27891386261115
21
150.92886933999478
0
LINE
6
CONTINUOUS
48
1
8
作画層１
62
7
10
537.77891386261115
20
152.19663629296122
11
538.27891386261115
21
152.69663629296122
0
LINE
6
CONTINUOUS
48
1
8
作画層１
62
7
10
537.77891386261115
20
153.96440324592766
11
538.27891386261115
21
154.46440324592766
0
LINE
6
CONTINUOUS
48
1
8
作画層１
62
7
10
537.29074796181692
20
155.24400429809975
11
537.78483091221403
21
155.73808724849687
0
LINE
6
CONTINUOUS
48
1
8
作画層１
62
7
10
535.52298100885059
20
155.24400429809975
11
536.02298084863901
21
155.74400413788811
0
LINE
6
CONTINUOUS
48
1
8
作画層１
62
7
10
543.36058713065029
20
140.10064003133664
11
543.65174288885351
21
140.39179578953986
0
LINE
6
CONTINUOUS
48
1
8
作画層１
62
7
10
544.73442223007009
20
141.4744751307565
11
545.0255779882732
21
141.76563088895955
0
LINE
6
CONTINUOUS
48
1
8
作画層１
62
7
10
542.33948430334613
20
140.84730415699886
11
542.83948430334613
21
141.34730415699886
0
LINE
6
CONTINUOUS
48
1
8
作画層１
62
7
10
542.85974314980217
20
141.3675630034549
11
543.75865501615499
21
142.26647486980761
0
LINE
6
CONTINUOUS
48
1
8
作画層１
62
7
10
540.5717173503798
20
140.84730415699886
11
541.0717173503798
21
141.34730415699886
0
LINE
6
CONTINUOUS
48
1
8
作画層１
62
7
10
539.29143213001225
20
141.3347858895977
11
539.77891386261115
21
141.82226762219659
0
LINE
6
CONTINUOUS
48
1
8
作画層１
62
7
10
539.27891386261115
20
143.09003457516292
11
539.77891386261115
21
143.59003457516292
0
LINE
6
CONTINUOUS
48
1
8
作画層１
62
7
10
539.27891386261115
20
144.85780152812936
11
539.77891386261115
21
145.35780152812936
0
LINE
6
CONTINUOUS
48
1
8
作画層１
62
7
10
539.27891386261115
20
146.62556848109574
11
539.77891386261115
21
147.12556848109574
0
LINE
6
CONTINUOUS
48
1
8
作画層１
62
7
10
539.27891386261115
20
148.39333543406212
11
539.77891386261115
21
148.89333543406212
0
LINE
6
CONTINUOUS
48
1
8
作画層１
62
7
10
539.27891386261115
20
150.16110238702845
11
539.77891386261115
21
150.66110238702845
0
LINE
6
CONTINUOUS
48
1
8
作画層１
62
7
10
539.27891386261115
20
151.92886933999489
11
539.77891386261115
21
152.42886933999489
0
LINE
6
CONTINUOUS
48
1
8
作画層１
62
7
10
539.27891386261115
20
153.69663629296122
11
539.77891386261115
21
154.19663629296122
0
LINE
6
CONTINUOUS
48
1
8
作画層１
62
7
10
539.27891386261115
20
155.46440324592766
11
539.77891386261115
21
155.96440324592766
0
LINE
6
CONTINUOUS
48
1
8
作画層１
62
7
10
539.27891386261115
20
157.23217019889398
11
539.77891386261115
21
157.73217019889398
0
LINE
6
CONTINUOUS
48
1
8
作画層１
62
7
10
539.27891386261115
20
158.99993715186042
11
539.77891386261115
21
159.49993715186042
0
TEXT
6
CONTINUOUS
8
作画層１
62
7
10
543.22891386261108
20
136.09730415699886
40
3
41
1
50
0
51
0
7
BIGFONT
1
GND
72
5
11
547.72891386261108
21
136.09730415699886
0
TEXT
6
CONTINUOUS
8
作画層１
62
7
10
529.72891386261108
20
136.09730415699886
40
3
41
1
50
0
51
0
7
BIGFONT
1
Vcc
72
5
11
534.22891386261108
21
136.09730415699886
0
LINE
6
CONTINUOUS
48
1
8
作画層１
62
6
10
530.52891386261115
20
142.59730415699886
11
530.52891386261115
21
139.59730415699886
0
LINE
6
CONTINUOUS
48
1
8
作画層１
62
6
10
532.02891386261115
20
141.09730415699886
11
529.02891386261115
21
141.09730415699886
0
LINE
6
CONTINUOUS
48
1
8
作画層１
62
6
10
529.02891386261115
20
141.09730415699886
11
530.52891386261115
21
142.59730415699886
0
LINE
6
CONTINUOUS
48
1
8
作画層１
62
6
10
530.52891386261115
20
142.59730415699886
11
532.02891386261115
21
141.09730415699886
0
LINE
6
CONTINUOUS
48
1
8
作画層１
62
6
10
529.02891386261115
20
141.09730415699886
11
530.52891386261115
21
139.59730415699886
0
LINE
6
CONTINUOUS
48
1
8
作画層１
62
6
10
530.52891386261115
20
139.59730415699875
11
532.02891386261115
21
141.09730415699886
0
LINE
6
CONTINUOUS
48
1
8
作画層１
62
6
10
544.02891386261115
20
142.59730415699886
11
544.02891386261115
21
139.59730415699886
0
LINE
6
CONTINUOUS
48
1
8
作画層１
62
6
10
545.52891386261115
20
141.09730415699886
11
542.52891386261115
21
141.09730415699886
0
LINE
6
CONTINUOUS
48
1
8
作画層１
62
6
10
542.52891386261115
20
141.09730415699886
11
544.02891386261115
21
142.59730415699886
0
LINE
6
CONTINUOUS
48
1
8
作画層１
62
6
10
544.02891386261115
20
142.59730415699886
11
545.52891386261115
21
141.09730415699886
0
LINE
6
CONTINUOUS
48
1
8
作画層１
62
6
10
542.52891386261115
20
141.09730415699886
11
544.02891386261115
21
139.59730415699886
0
LINE
6
CONTINUOUS
48
1
8
作画層１
62
6
10
544.02891386261115
20
139.59730415699875
11
545.52891386261115
21
141.09730415699886
0
LINE
6
CENTER
48
1
8
作画層１
62
7
10
537.27891627437589
20
85.19730415699884
11
537.27891627437589
21
178.29730515699896
0
POLYLINE
6
CONTINUOUS
48
1
8
作画層１
62
7
66
1
0
VERTEX
6
CONTINUOUS
8
作画層１
62
7
10
538.92823040315352
20
160.77860025095208
0
VERTEX
6
CONTINUOUS
8
作画層１
62
7
10
538.92823040315352
20
175.77860025095208
0
SEQEND
0
LINE
6
CONTINUOUS
48
1
8
作画層１
62
7
10
538.92823040315352
20
160.77860025095208
11
538.38823040315344
21
162.77860025095208
0
LINE
6
CONTINUOUS
48
1
8
作画層１
62
7
10
538.92823040315352
20
160.77860025095208
11
539.4682304031536
21
162.77860025095208
0
TEXT
6
CONTINUOUS
8
作画層１
62
7
10
538.92823040315352
20
175.77860025095208
40
2
41
1
50
0
51
0
7
BIGFONT
1
モジュール中心点
72
5
11
554.92823040315352
21
175.77860025095208
0
LINE
6
CONTINUOUS
48
1
8
作画層１
62
7
10
538.92823040315352
20
175.77860025095208
11
554.92823040315352
21
175.77860025095208
0
LINE
6
CONTINUOUS
48
1
8
SONNET_Copper_1
62
7
10
496.2789163626112
20
148.29730415699902
11
496.2789163626112
21
173.29730515699896
0
LINE
6
CONTINUOUS
48
1
8
SONNET_Copper_1
62
7
10
471.27891618614058
20
173.29730515699896
11
496.2789163626112
21
173.29730515699896
0
LINE
6
CONTINUOUS
48
1
8
FRAME
62
7
10
485.78178812294277
20
151.00387623756529
11
486.04341763198181
21
151.26550574660433
0
LINE
6
CONTINUOUS
48
1
8
FRAME
62
7
10
485.78178812294277
20
151.00387623756529
11
486.04341763198181
21
151.26550574660433
0
LINE
6
CONTINUOUS
48
1
8
FRAME
62
7
10
486.07877297104096
20
151.30086108566366
11
486.97679858314791
21
152.19888669777049
0
LINE
6
CONTINUOUS
48
1
8
FRAME
62
7
10
486.07877297104096
20
151.30086108566366
11
486.64445839599034
21
151.86654651061286
0
LINE
6
CONTINUOUS
48
1
8
FRAME
62
7
10
486.07877297104096
20
151.30086108566366
11
486.00806229292243
21
151.23015040754501
0
LINE
6
CONTINUOUS
48
1
8
FRAME
62
7
10
493.75795261472695
20
158.98004072934947
11
494.40849085341847
21
159.63057896804105
0
ARC
6
CONTINUOUS
48
1
8
FRAME
62
7
10
487.22428595656322
20
152.4463740711858
40
0.350000000000027
50
45
51
225
0
LINE
6
CONTINUOUS
48
1
8
FRAME
62
7
10
487.47177332997853
20
152.69386144460111
11
487.87482419525486
21
153.09691230987744
0
ARC
6
CONTINUOUS
48
1
8
FRAME
62
7
10
488.12231156867017
20
153.34439968329275
40
0.350000000000027
50
45
51
225
0
LINE
6
CONTINUOUS
48
1
8
FRAME
62
7
10
488.36979894208548
20
153.59188705670806
11
488.77284980736181
21
153.99493792198439
0
ARC
6
CONTINUOUS
48
1
8
FRAME
62
7
10
489.02033718077712
20
154.2424252953997
40
0.3499999999999868
50
44.999999999993427
51
225
0
LINE
6
CONTINUOUS
48
1
8
FRAME
62
7
10
489.26782455419243
20
154.48991266881495
11
489.67087541946876
21
154.89296353409128
0
ARC
6
CONTINUOUS
48
1
8
FRAME
62
7
10
489.91836279288407
20
155.14045090750665
40
0.3499999999999868
50
44.999999999993427
51
225
0
LINE
6
CONTINUOUS
48
1
8
FRAME
62
7
10
490.16585016629926
20
155.38793828092184
11
490.56890103157548
21
155.79098914619817
0
ARC
6
CONTINUOUS
48
1
8
FRAME
62
7
10
490.81638840499096
20
156.03847651961343
40
0.350000000000027
50
45.000000000013166
51
224.99999999998687
0
LINE
6
CONTINUOUS
48
1
8
FRAME
62
7
10
491.0638757784061
20
156.28596389302874
11
491.46692664368243
21
156.68901475830506
0
ARC
6
CONTINUOUS
48
1
8
FRAME
62
7
10
491.71441401709774
20
156.93650213172037
40
0.3499999999999868
50
44.999999999993427
51
225
0
LINE
6
CONTINUOUS
48
1
8
FRAME
62
7
10
491.96190139051305
20
157.18398950513563
11
492.36495225578938
21
157.58704037041196
0
ARC
6
CONTINUOUS
48
1
8
FRAME
62
7
10
492.61243962920469
20
157.83452774382729
40
0.3500000000000069
50
44.99999999999671
51
224.9999999999967
0
LINE
6
CONTINUOUS
48
1
8
FRAME
62
7
10
492.85992700262
20
158.08201511724258
11
493.26297786789632
21
158.4850659825189
0
ARC
6
CONTINUOUS
48
1
8
FRAME
62
7
10
493.51046524131164
20
158.73255335593421
40
0.3499999999999868
50
44.999999999993427
51
225
0
ARC
6
CONTINUOUS
48
1
8
FRAME
62
7
10
479.14205544760114
20
156.93650213172037
40
0.3499999999999868
50
315.00000000000659
51
135.00000000001316
0
LINE
6
CONTINUOUS
48
1
8
FRAME
62
7
10
479.38954282101645
20
156.68901475830501
11
479.79259368629278
21
156.28596389302874
0
ARC
6
CONTINUOUS
48
1
8
FRAME
62
7
10
480.04008105970797
20
156.0384765196134
40
0.3500000000000069
50
315.0000000000033
51
134.99999999998357
0
LINE
6
CONTINUOUS
48
1
8
FRAME
62
7
10
480.2875684331234
20
155.79098914619811
11
480.69061929839972
21
155.38793828092184
0
ARC
6
CONTINUOUS
48
1
8
FRAME
62
7
10
480.93810667181486
20
155.14045090750653
40
0.3499999999999868
50
314.99999999999341
51
135.00000000001316
0
LINE
6
CONTINUOUS
48
1
8
FRAME
62
7
10
481.18559404523012
20
154.89296353409128
11
481.58864491050645
21
154.48991266881495
0
ARC
6
CONTINUOUS
48
1
8
FRAME
62
7
10
481.8361322839217
20
154.24242529539961
40
0.3500000000000471
50
315.00000000000983
51
134.99999999999014
0
LINE
6
CONTINUOUS
48
1
8
FRAME
62
7
10
482.08361965733707
20
153.99493792198433
11
482.48667052261339
21
153.59188705670806
0
ARC
6
CONTINUOUS
48
1
8
FRAME
62
7
10
482.73415789602871
20
153.34439968329275
40
0.3499999999999868
50
315.00000000000659
51
135.00000000000659
0
LINE
6
CONTINUOUS
48
1
8
FRAME
62
7
10
482.98164526944402
20
153.09691230987744
11
483.38469613472034
21
152.69386144460111
0
ARC
6
CONTINUOUS
48
1
8
FRAME
62
7
10
483.63218350813565
20
152.44637407118583
40
0.3499999999999667
50
315.00000000000983
51
135.0000000000033
0
ARC
6
CONTINUOUS
48
1
8
FRAME
62
7
10
493.51049450667603
20
162.32468506972629
40
0.3499999999999868
50
134.99999999999343
51
315.00000000001319
0
LINE
6
CONTINUOUS
48
1
8
FRAME
62
7
10
493.26300713326077
20
162.5721724431416
11
492.85995626798444
21
162.97522330841787
0
ARC
6
CONTINUOUS
48
1
8
FRAME
62
7
10
492.61246889456913
20
163.22271068183318
40
0.350000000000027
50
135
51
315
0
LINE
6
CONTINUOUS
48
1
8
FRAME
62
7
10
492.36498152115382
20
163.47019805524849
11
491.96193065587761
21
163.87324892052482
0
ARC
6
CONTINUOUS
48
1
8
FRAME
62
7
10
491.71444328246218
20
164.1207362939401
40
0.3499999999999667
50
134.99999999998357
51
315.00000000000983
0
LINE
6
CONTINUOUS
48
1
8
FRAME
62
7
10
491.46695590904699
20
164.36822366735544
11
491.06390504377077
21
164.77127453263171
0
ARC
6
CONTINUOUS
48
1
8
FRAME
62
7
10
490.81641767035524
20
165.01876190604693
40
0.3499999999999264
50
134.99999999996382
51
315.00000000001643
0
LINE
6
CONTINUOUS
48
1
8
FRAME
62
7
10
490.56893029694015
20
165.26624927946233
11
490.16587943166371
21
165.66930014473871
0
ARC
6
CONTINUOUS
48
1
8
FRAME
62
7
10
489.91839205824851
20
165.91678751815391
40
0.350000000000027
50
135
51
315
0
LINE
6
CONTINUOUS
48
1
8
FRAME
62
7
10
489.6709046848332
20
166.16427489156922
11
489.26785381955688
21
166.56732575684561
0
ARC
6
CONTINUOUS
48
1
8
FRAME
62
7
10
489.02036644614157
20
166.81481313026086
40
0.3499999999999868
50
135.00000000000659
51
315.00000000000659
0
LINE
6
CONTINUOUS
48
1
8
FRAME
62
7
10
488.77287907272625
20
167.06230050367611
11
488.36982820744993
21
167.46535136895238
0
ARC
6
CONTINUOUS
48
1
8
FRAME
62
7
10
488.12234083403467
20
167.71283874236775
40
0.350000000000027
50
135.00000000001316
51
314.99999999998681
0
ARC
6
CONTINUOUS
48
1
8
FRAME
62
7
10
483.63218350813565
20
168.61083508911022
40
0.3499999999999667
50
224.99999999999011
51
44.99999999999671
0
LINE
6
CONTINUOUS
48
1
8
FRAME
62
7
10
483.38469613472034
20
168.363347715695
11
482.98164526944402
21
167.96029685041867
0
ARC
6
CONTINUOUS
48
1
8
FRAME
62
7
10
482.73415789602871
20
167.71280947700336
40
0.350000000000027
50
225
51
45
0
LINE
6
CONTINUOUS
48
1
8
FRAME
62
7
10
482.48667052261362
20
167.46532210358805
11
482.08361965733707
21
167.06227123831172
0
ARC
6
CONTINUOUS
48
1
8
FRAME
62
7
10
481.83613228392176
20
166.81478386489641
40
0.350000000000027
50
225
51
45
0
LINE
6
CONTINUOUS
48
1
8
FRAME
62
7
10
487.87485346061931
20
167.960326115783
11
487.47180259534298
21
168.36337698105939
0
ARC
6
CONTINUOUS
48
1
8
FRAME
62
7
10
487.22431522192767
20
168.61086435447461
40
0.3499999999999667
50
134.99999999998357
51
315.00000000000983
0
LINE
6
CONTINUOUS
48
1
8
FRAME
62
7
10
486.97682784851247
20
168.85835172788995
11
486.32628960982083
21
169.50888996658159
0
ARC
6
CONTINUOUS
48
1
8
FRAME
62
7
10
480.93810667181481
20
165.91675825278946
40
0.350000000000027
50
225
51
45
0
LINE
6
CONTINUOUS
48
1
8
FRAME
62
7
10
480.69061929839972
20
165.66927087937415
11
480.28756843312328
21
165.26622001409794
0
ARC
6
CONTINUOUS
48
1
8
FRAME
62
7
10
480.04008105970803
20
165.01873264068246
40
0.3499999999999465
50
224.99999999997365
51
45.000000000026319
0
LINE
6
CONTINUOUS
48
1
8
FRAME
62
7
10
479.79259368629278
20
164.77124526726732
11
479.38954282101645
21
164.36819440199088
0
ARC
6
CONTINUOUS
48
1
8
FRAME
62
7
10
479.14205544760114
20
164.12070702857571
40
0.3500000000000069
50
224.9999999999967
51
44.99999999999671
0
LINE
6
CONTINUOUS
48
1
8
FRAME
62
7
10
481.58864491050667
20
166.56729649148122
11
481.18559404523012
21
166.16424562620477
0
LINE
6
CONTINUOUS
48
1
8
FRAME
62
7
10
493.75795261472695
20
158.98004072934947
11
494.95299234029653
21
160.17508045491934
0
LINE
6
CONTINUOUS
48
1
8
FRAME
62
7
10
486.97682784851247
20
168.85835172788995
11
485.78178812294277
21
170.05333292273076
0
LINE
6
CONTINUOUS
48
1
8
FRAME
62
7
10
476.4479786112804
20
161.42663019225506
11
475.90350638976679
21
160.88215797074122
0
ARC
6
CONTINUOUS
48
1
8
FRAME
62
7
10
477.34600422338724
20
158.73255335593413
40
0.3500000000000069
50
315.0000000000033
51
135.0000000000033
0
LINE
6
CONTINUOUS
48
1
8
FRAME
62
7
10
477.59349159680255
20
158.48506598251885
11
477.99654246207888
21
158.08201511724258
0
ARC
6
CONTINUOUS
48
1
8
FRAME
62
7
10
478.24402983549419
20
157.83452774382718
40
0.3500000000000471
50
314.9999999999967
51
134.99999999999014
0
LINE
6
CONTINUOUS
48
1
8
FRAME
62
7
10
478.4915172089095
20
157.58704037041196
11
478.89456807418583
21
157.18398950513563
0
CIRCLE
6
CONTINUOUS
48
1
8
FRAME
62
7
10
479.02891836261119
20
160.79730515699902
40
0.5
0
LINE
6
CONTINUOUS
48
1
8
FRAME
62
7
10
478.89456807418583
20
163.87321965516048
11
478.4915172089095
21
163.47016878988416
0
ARC
6
CONTINUOUS
48
1
8
FRAME
62
7
10
478.24402983549419
20
163.22268141646882
40
0.3500000000000069
50
224.9999999999967
51
44.99999999999671
0
LINE
6
CONTINUOUS
48
1
8
FRAME
62
7
10
477.99654246207888
20
162.97519404305353
11
477.59349159680255
21
162.57214317777721
0
ARC
6
CONTINUOUS
48
1
8
FRAME
62
7
10
477.34600422338735
20
162.3246558043619
40
0.3499999999999868
50
224.99999999999341
51
45.000000000013166
0
LINE
6
CONTINUOUS
48
1
8
FRAME
62
7
10
477.09851684997204
20
162.07716843094664
11
476.4479786112804
21
161.42663019225506
0
LINE
6
CONTINUOUS
48
1
8
FRAME
62
7
10
485.0746813417561
20
151.00387623756529
11
485.78178812294277
21
151.00387623756529
0
LINE
6
CONTINUOUS
48
1
8
FRAME
62
7
10
485.0746813417561
20
151.00387623756529
11
483.87967088155096
21
152.1988866977706
0
LINE
6
CONTINUOUS
48
1
8
FRAME
62
7
10
485.0746813417561
20
170.05333292273076
11
484.81305183271718
21
169.79170341369178
0
LINE
6
CONTINUOUS
48
1
8
FRAME
62
7
10
485.0746813417561
20
170.05333292273076
11
484.81305183271718
21
169.79170341369178
0
LINE
6
CONTINUOUS
48
1
8
FRAME
62
7
10
484.7776964936578
20
169.7563480746324
11
483.87967088155096
21
168.85832246252551
0
LINE
6
CONTINUOUS
48
1
8
FRAME
62
7
10
484.7776964936578
20
169.7563480746324
11
484.21201106870853
21
169.19066264968319
0
LINE
6
CONTINUOUS
48
1
8
FRAME
62
7
10
484.7776964936578
20
169.7563480746324
11
484.84840717177644
21
169.8270587527511
0
LINE
6
CONTINUOUS
48
1
8
FRAME
62
7
10
485.78178812294277
20
170.05333292273076
11
485.0746813417561
21
170.05333292273076
0
LINE
6
CONTINUOUS
48
1
8
FRAME
62
7
10
494.95299234029665
20
160.88218723610578
11
494.69136283125749
21
161.14381674514476
0
LINE
6
CONTINUOUS
48
1
8
FRAME
62
7
10
494.95299234029665
20
160.88218723610578
11
494.69136283125749
21
161.14381674514476
0
LINE
6
CONTINUOUS
48
1
8
FRAME
62
7
10
494.65600749219823
20
161.1791720842042
11
493.75798188009139
21
162.07719769631109
0
LINE
6
CONTINUOUS
48
1
8
FRAME
62
7
10
494.65600749219823
20
161.1791720842042
11
494.09032206724896
21
161.74485750915335
0
LINE
6
CONTINUOUS
48
1
8
FRAME
62
7
10
494.65600749219823
20
161.1791720842042
11
494.72671817031699
21
161.10846140608544
0
LINE
6
CONTINUOUS
48
1
8
FRAME
62
7
10
494.95299234029653
20
160.17508045491934
11
494.95299234029665
21
160.88218723610578
0
LINE
6
CONTINUOUS
48
1
8
FRAME
62
7
10
475.90350638976679
20
160.17505118955467
11
476.1651358988056
21
159.91342168051568
0
LINE
6
CONTINUOUS
48
1
8
FRAME
62
7
10
475.90350638976679
20
160.17505118955467
11
476.1651358988056
21
159.91342168051568
0
LINE
6
CONTINUOUS
48
1
8
FRAME
62
7
10
476.20049123786498
20
159.8780663414563
11
477.09851684997193
21
158.98004072934941
0
LINE
6
CONTINUOUS
48
1
8
FRAME
62
7
10
476.20049123786498
20
159.8780663414563
11
476.76617666281436
21
159.31238091650704
0
LINE
6
CONTINUOUS
48
1
8
FRAME
62
7
10
476.20049123786498
20
159.8780663414563
11
476.12978055974645
21
159.948777019575
0
LINE
6
CONTINUOUS
48
1
8
FRAME
62
7
10
475.90350638976679
20
160.88215797074122
11
475.90350638976679
21
160.17505118955467
0
LINE
6
CONTINUOUS
48
1
8
COMPONENT
62
7
10
486.16011951624182
20
152.30144644640706
11
493.65545139681922
21
159.79677832698445
0
LINE
6
CONTINUOUS
48
1
8
COMPONENT
62
7
10
493.65545139681922
20
161.21099188935756
11
486.11062204155883
21
168.75582124461801
0
LINE
6
CONTINUOUS
48
1
8
COMPONENT
62
7
10
479.53452897652392
20
163.5939417419562
11
482.37709823689386
21
160.75137248158626
0
LINE
6
CONTINUOUS
48
1
8
COMPONENT
62
7
10
482.37709823689386
20
160.75137248158626
11
479.477960434029
21
157.8522346787214
0
LINE
6
CONTINUOUS
48
1
8
COMPONENT
62
7
10
479.477960434029
20
157.8522346787214
11
479.33653907779171
21
157.71081332248411
0
LINE
6
CONTINUOUS
48
1
8
COMPONENT
62
7
10
479.33653907779171
20
157.71081332248411
11
484.74590595386871
21
152.30144644640711
0
LINE
6
CONTINUOUS
48
1
8
COMPONENT
62
7
10
484.69640847918572
20
168.75582124461801
11
479.53452897652392
21
163.5939417419562
0
LINE
6
CONTINUOUS
48
1
8
COMPONENT
62
7
10
486.11062204155883
20
168.75582124461801
11
484.69640847918572
21
168.75582124461801
0
LINE
6
CONTINUOUS
48
1
8
COMPONENT
62
7
10
493.65545139681922
20
159.79677832698445
11
493.65545139681922
21
161.21099188935756
0
LINE
6
CONTINUOUS
48
1
8
COMPONENT
62
7
10
484.74590595386871
20
152.30144644640711
11
486.16011951624182
21
152.30144644640706
0
CIRCLE
6
CONTINUOUS
48
1
8
作画層１
62
7
10
485.42823040315352
20
160.52860025095208
40
0.25
0
LINE
6
CONTINUOUS
48
1
8
作画層１
62
7
10
485.25145370785685
20
160.35182355565547
11
485.60500709845019
21
160.70537694624869
0
LINE
6
CONTINUOUS
48
1
8
作画層１
62
7
10
485.25145370785685
20
160.70537694624869
11
485.60500709845019
21
160.35182355565547
0
DIMENSION
8
作画層１
2
*D1
10
461.27891912731718
20
173.29730515699896
11
461.27891912731718
21
148.29730415699902
13
471.27891618614058
23
173.29730515699896
14
471.27891912731718
24
148.29730415699902
50
90
0
LINE
6
DOT
48
1
8
SONNET_Copper_1
62
7
10
495.2789163626112
20
159.29730515699896
11
493.7789163626112
21
159.29730515699896
0
CIRCLE
6
CONTINUOUS
48
1
8
作画層１
62
16
10
490.52891386261115
20
141.09730415699886
40
0.8
0
ARC
6
CONTINUOUS
48
1
8
作画層１
62
16
10
477.02891386261115
20
141.09730415699886
40
1.1999999999999225
50
12.024699180566612
51
347.97530081943341
0
ARC
6
CONTINUOUS
48
1
8
作画層１
62
16
10
490.52891386261115
20
141.09730415699886
40
1.1999999999999225
50
192.02469918056659
51
167.97530081943339
0
LINE
6
CONTINUOUS
48
1
8
作画層１
62
16
10
481.27891386261115
20
140.84730415699886
11
481.77891386261115
21
141.34730415699886
0
LINE
6
CONTINUOUS
48
1
8
作画層１
62
16
10
481.27891386261115
20
141.34730415699886
11
478.20258332204162
21
141.34730415699886
0
LINE
6
CONTINUOUS
48
1
8
作画層１
62
16
10
481.27891386261115
20
140.84730415699886
11
478.20258332204162
21
140.84730415699886
0
LINE
6
CONTINUOUS
48
1
8
作画層１
62
16
10
485.77891386261115
20
141.34730415699886
11
486.27891386261115
21
140.84730415699886
0
LINE
6
CONTINUOUS
48
1
8
作画層１
62
16
10
486.27891386261115
20
141.34730415699886
11
489.35524440318068
21
141.34730415699886
0
LINE
6
CONTINUOUS
48
1
8
作画層１
62
16
10
486.27891386261115
20
140.84730415699886
11
489.35524440318068
21
140.84730415699886
0
LINE
6
CONTINUOUS
48
1
8
作画層１
62
16
10
481.27891386261115
20
148.79730415699885
11
481.77891386261115
21
149.29730415699885
0
LINE
6
CONTINUOUS
48
1
8
作画層１
62
16
10
484.27891386261115
20
148.79730415699885
11
484.77891386261115
21
149.29730415699885
0
LINE
6
CONTINUOUS
48
1
8
作画層１
62
16
10
481.77891386261115
20
148.79730415699885
11
484.27891386261115
21
148.79730415699885
0
LINE
6
CONTINUOUS
48
1
8
作画層１
62
16
10
481.77891386261115
20
149.29730415699885
11
484.27891386261115
21
149.29730415699885
0
LINE
6
CONTINUOUS
48
1
8
作画層１
62
16
10
481.77891386261115
20
141.34730415699886
11
481.77891386261115
21
148.79730415699885
0
LINE
6
CONTINUOUS
48
1
8
作画層１
62
16
10
481.27891386261115
20
141.34730415699886
11
481.27891386261115
21
148.79730415699885
0
LINE
6
CONTINUOUS
48
1
8
作画層１
62
7
10
479.5336581275053
20
140.84730415699886
11
480.0336581275053
21
141.34730415699886
0
LINE
6
CONTINUOUS
48
1
8
作画層１
62
7
10
481.27891386261115
20
142.5925598921047
11
481.77891386261115
21
143.0925598921047
0
LINE
6
CONTINUOUS
48
1
8
作画層１
62
7
10
476.83213521791322
20
139.91354820037304
11
477.24587232775514
21
140.32728531021499
0
LINE
6
CONTINUOUS
48
1
8
作画層１
62
7
10
477.79893270939499
20
140.88034569185481
11
478.26589117453898
21
141.3473041569988
0
LINE
6
CONTINUOUS
48
1
8
作画層１
62
7
10
481.27891386261115
20
144.36032684507097
11
481.77891386261115
21
144.86032684507097
0
LINE
6
CONTINUOUS
48
1
8
作画層１
62
7
10
475.88513210024553
20
140.73431203567179
11
476.22913916457992
21
141.07831910000621
0
LINE
6
CONTINUOUS
48
1
8
作画層１
62
7
10
477.04789891960388
20
141.89707885503014
11
477.39190598393816
21
142.24108591936442
0
LINE
6
CONTINUOUS
48
1
8
作画層１
62
7
10
481.27891386261115
20
146.12809379803747
11
481.77891386261115
21
146.62809379803747
0
LINE
6
CONTINUOUS
48
1
8
作画層１
62
7
10
483.94812422157247
20
148.79730415699879
11
484.77891386261115
21
149.62809379803747
0
LINE
6
CONTINUOUS
48
1
8
作画層１
62
7
10
481.27891386261115
20
147.89586075100374
11
481.77891386261115
21
148.39586075100374
0
LINE
6
CONTINUOUS
48
1
8
作画層１
62
7
10
482.18035726860626
20
148.79730415699885
11
482.68035726860626
21
149.29730415699885
0
LINE
6
CONTINUOUS
48
1
8
作画層１
62
7
10
484.27891386261115
20
150.89586075100374
11
484.33692934917269
21
150.95387623756528
0
LINE
6
CONTINUOUS
48
1
8
作画層１
62
7
10
491.10577775451679
20
140.04505511324567
11
491.58116290636417
21
140.52044026509304
0
LINE
6
CONTINUOUS
48
1
8
作画層１
62
7
10
489.61389555933408
20
140.32093987102928
11
489.89816565212129
21
140.60520996381646
0
LINE
6
CONTINUOUS
48
1
8
作画層１
62
7
10
491.02100805579357
20
141.72805236748874
11
491.30527814858078
21
142.01232246027598
0
LINE
6
CONTINUOUS
48
1
8
作画層１
62
7
10
488.37249289233716
20
140.84730415699886
11
488.87249289233716
21
141.34730415699886
0
LINE
6
CONTINUOUS
48
1
8
作画層１
62
7
10
486.60472593937084
20
140.84730415699892
11
487.10472593937084
21
141.34730415699892
0
LINE
6
CONTINUOUS
48
1
8
作画層１
62
7
10
485.77891386261115
20
141.78925903320544
11
486.27891386261115
21
142.28925903320544
0
LINE
6
CONTINUOUS
48
1
8
作画層１
62
7
10
485.77891386261115
20
143.55702598617182
11
486.27891386261115
21
144.05702598617182
0
LINE
6
CONTINUOUS
48
1
8
作画層１
62
7
10
485.77891386261115
20
145.32479293913838
11
486.27891386261115
21
145.82479293913838
0
LINE
6
CONTINUOUS
48
1
8
作画層１
62
7
10
485.77891386261115
20
147.09255989210476
11
486.27891386261115
21
147.59255989210476
0
LINE
6
CONTINUOUS
48
1
8
作画層１
62
7
10
485.77891386261115
20
148.86032684507097
11
486.27891386261115
21
149.36032684507097
0
LINE
6
CONTINUOUS
48
1
8
作画層１
62
7
10
485.77891386261115
20
150.62809379803747
11
486.1046963021389
21
150.95387623756523
0
LINE
6
CONTINUOUS
48
1
8
作画層１
62
16
10
484.77891386261115
20
151.29964371671019
11
484.77891386261115
21
149.29730415699885
0
LINE
6
CONTINUOUS
48
1
8
作画層１
62
16
10
484.27891386261115
20
151.79964371671031
11
484.27891386261115
21
149.29730415699885
0
LINE
6
CONTINUOUS
48
1
8
作画層１
62
16
10
485.77891386261115
20
151.00100197723367
11
485.77891386261115
21
141.34730415699886
0
LINE
6
CONTINUOUS
48
1
8
作画層１
62
16
10
486.27891386261115
20
151.50100197723367
11
486.27891386261115
21
141.34730415699886
0
LINE
6
CONTINUOUS
48
1
8
作画層１
62
7
10
471.27891912731718
20
148.2973042033247
11
496.2789163626112
21
148.29730415699902
0
CIRCLE
6
CONTINUOUS
48
1
8
作画層１
62
16
10
477.02891386261115
20
141.09730415699886
40
0.8
0
CIRCLE
6
CONTINUOUS
48
1
8
作画層１
62
16
10
477.02891386261115
20
92.197304156998825
40
0.8
0
CIRCLE
6
CONTINUOUS
48
1
8
作画層１
62
16
10
490.52891386261115
20
92.197304156998825
40
0.8
0
ARC
6
CONTINUOUS
48
1
8
作画層１
62
16
10
490.52891386261103
20
92.197304156998854
40
1.2000000000000171
50
270.0000000000054
51
89.999999999994571
0
ARC
6
CONTINUOUS
48
1
8
作画層１
62
16
10
477.0289138626112
20
92.197304156998882
40
1.1999999999999886
50
90.000000000002714
51
269.99999999999721
0
LINE
6
CONTINUOUS
48
1
8
作画層１
62
16
10
477.02891386261115
20
93.397304156998871
11
490.52891386261115
21
93.397304156998871
0
LINE
6
CONTINUOUS
48
1
8
作画層１
62
16
10
477.02891386261115
20
90.997304156998894
11
490.52891386261115
21
90.997304156998837
0
LINE
6
CONTINUOUS
48
1
8
作画層１
62
7
10
489.96214116039016
20
90.997304156998894
11
490.37674632871176
21
91.411909325320536
0
LINE
6
CONTINUOUS
48
1
8
作画層１
62
7
10
491.31430869428948
20
92.34947169089817
11
491.63277321478267
21
92.667936211391378
0
LINE
6
CONTINUOUS
48
1
8
作画層１
62
7
10
488.19437420742383
20
90.997304156998837
11
490.59267885394729
21
93.395608803522393
0
LINE
6
CONTINUOUS
48
1
8
作画層１
62
7
10
486.42660725445751
20
90.997304156998894
11
488.82660725445749
21
93.397304156998871
0
LINE
6
CONTINUOUS
48
1
8
作画層１
62
7
10
484.65884030149095
20
90.997304156998837
11
487.05884030149105
21
93.397304156998871
0
LINE
6
CONTINUOUS
48
1
8
作画層１
62
7
10
482.89107334852474
20
90.997304156998894
11
485.29107334852483
21
93.397304156998871
0
LINE
6
CONTINUOUS
48
1
8
作画層１
62
7
10
481.12330639555842
20
90.997304156998837
11
483.52330639555839
21
93.397304156998871
0
LINE
6
CONTINUOUS
48
1
8
作画層１
62
7
10
479.35553944259209
20
90.997304156998894
11
481.75553944259207
21
93.397304156998871
0
LINE
6
CONTINUOUS
48
1
8
作画層１
62
7
10
477.58777248962565
20
90.997304156998894
11
479.98777248962574
21
93.397304156998871
0
LINE
6
CONTINUOUS
48
1
8
作画層１
62
7
10
476.17594325286927
20
91.353241873208731
11
476.45879181082398
21
91.636090431163439
0
LINE
6
CONTINUOUS
48
1
8
作画層１
62
7
10
477.59012758844653
20
92.767426208785992
11
478.22000553665941
21
93.397304156998871
0
LINE
6
CONTINUOUS
48
1
8
作画層１
62
6
10
477.02891386261115
20
93.697304156998825
11
477.02891386261115
21
90.697304156998825
0
LINE
6
CONTINUOUS
48
1
8
作画層１
62
6
10
478.52891386261115
20
92.197304156998825
11
475.52891386261115
21
92.197304156998825
0
LINE
6
CONTINUOUS
48
1
8
作画層１
62
6
10
475.52891386261115
20
92.197304156998825
11
477.02891386261115
21
93.697304156998825
0
LINE
6
CONTINUOUS
48
1
8
作画層１
62
6
10
477.02891386261115
20
93.697304156998825
11
478.52891386261115
21
92.197304156998825
0
LINE
6
CONTINUOUS
48
1
8
作画層１
62
6
10
475.52891386261115
20
92.197304156998825
11
477.02891386261115
21
90.697304156998825
0
LINE
6
CONTINUOUS
48
1
8
作画層１
62
6
10
477.02891386261115
20
90.697304156998712
11
478.52891386261115
21
92.197304156998825
0
LINE
6
CONTINUOUS
48
1
8
作画層１
62
6
10
490.52891386261115
20
93.697304156998825
11
490.52891386261115
21
90.697304156998825
0
LINE
6
CONTINUOUS
48
1
8
作画層１
62
6
10
492.02891386261115
20
92.197304156998825
11
489.02891386261115
21
92.197304156998825
0
LINE
6
CONTINUOUS
48
1
8
作画層１
62
6
10
489.02891386261115
20
92.197304156998825
11
490.52891386261115
21
93.697304156998825
0
LINE
6
CONTINUOUS
48
1
8
作画層１
62
6
10
490.52891386261115
20
93.697304156998825
11
492.02891386261115
21
92.197304156998825
0
LINE
6
CONTINUOUS
48
1
8
作画層１
62
6
10
489.02891386261115
20
92.197304156998825
11
490.52891386261115
21
90.697304156998825
0
LINE
6
CONTINUOUS
48
1
8
作画層１
62
6
10
490.52891386261115
20
90.697304156998712
11
492.02891386261115
21
92.197304156998825
0
POLYLINE
6
CONTINUOUS
48
1
8
作画層１
62
7
66
1
0
VERTEX
6
CONTINUOUS
8
作画層１
62
7
10
496.2789163626112
20
160.79730465699899
0
VERTEX
6
CONTINUOUS
8
作画層１
62
7
10
501.2789163626112
20
165.79730465699899
0
SEQEND
0
LINE
6
CONTINUOUS
48
1
8
作画層１
62
7
10
496.2789163626112
20
160.79730465699899
11
497.31129226314351
21
162.59335588121283
0
LINE
6
CONTINUOUS
48
1
8
作画層１
62
7
10
496.2789163626112
20
160.79730465699899
11
498.07496758682498
21
161.82968055753136
0
TEXT
6
CONTINUOUS
8
作画層１
62
7
10
501.2789163626112
20
165.79730465699899
40
2
41
1
50
0
51
0
7
BIGFONT
1
MW-A-P2525
72
5
11
511.2789163626112
21
165.79730465699899
0
LINE
6
CONTINUOUS
48
1
8
作画層１
62
7
10
501.2789163626112
20
165.79730465699899
11
511.2789163626112
21
165.79730465699899
0
LINE
6
CONTINUOUS
48
1
8
作画層１
62
6
10
477.02891386261115
20
142.59730415699886
11
477.02891386261115
21
139.59730415699886
0
LINE
6
CONTINUOUS
48
1
8
作画層１
62
6
10
478.52891386261115
20
141.09730415699886
11
475.52891386261115
21
141.09730415699886
0
LINE
6
CONTINUOUS
48
1
8
作画層１
62
6
10
475.52891386261115
20
141.09730415699886
11
477.02891386261115
21
142.59730415699886
0
LINE
6
CONTINUOUS
48
1
8
作画層１
62
6
10
477.02891386261115
20
142.59730415699886
11
478.52891386261115
21
141.09730415699886
0
LINE
6
CONTINUOUS
48
1
8
作画層１
62
6
10
475.52891386261115
20
141.09730415699886
11
477.02891386261115
21
139.59730415699886
0
LINE
6
CONTINUOUS
48
1
8
作画層１
62
6
10
477.02891386261115
20
139.59730415699875
11
478.52891386261115
21
141.09730415699886
0
LINE
6
CONTINUOUS
48
1
8
作画層１
62
6
10
490.52891386261115
20
142.59730415699886
11
490.52891386261115
21
139.59730415699886
0
LINE
6
CONTINUOUS
48
1
8
作画層１
62
6
10
492.02891386261115
20
141.09730415699886
11
489.02891386261115
21
141.09730415699886
0
LINE
6
CONTINUOUS
48
1
8
作画層１
62
6
10
489.02891386261115
20
141.09730415699886
11
490.52891386261115
21
142.59730415699886
0
LINE
6
CONTINUOUS
48
1
8
作画層１
62
6
10
490.52891386261115
20
142.59730415699886
11
492.02891386261115
21
141.09730415699886
0
LINE
6
CONTINUOUS
48
1
8
作画層１
62
6
10
489.02891386261115
20
141.09730415699886
11
490.52891386261115
21
139.59730415699886
0
LINE
6
CONTINUOUS
48
1
8
作画層１
62
6
10
490.52891386261115
20
139.59730415699875
11
492.02891386261115
21
141.09730415699886
0
ARC
6
CONTINUOUS
48
1
8
SONNET_Copper_1
62
16
10
490.81641767035529
20
165.01876190604682
40
0.450000000000072
50
315.00000000000256
51
135.00000000002561
0
ARC
6
CONTINUOUS
48
1
8
SONNET_Copper_1
62
16
10
480.93810667181486
20
155.14045090750636
40
0.4500000000000519
50
135.00000000002561
51
315.00000000001023
0
LINE
6
CONTINUOUS
48
1
8
作画層１
62
16
10
486.27891386261115
20
143.29730415699885
11
486.27891386261115
21
151.00100197723361
0
LINE
6
DOT
48
1
8
作画層１
62
16
10
501.0789138626111
20
90.197304156998825
11
466.47891386261119
21
90.197304156998811
0
LINE
6
DOT
48
1
8
作画層１
62
16
10
501.0789138626111
20
143.29730415699885
11
501.0789138626111
21
90.197304156998825
0
LINE
6
DOT
48
1
8
作画層１
62
16
10
501.0789138626111
20
143.29730415699885
11
486.27891386261115
21
143.29730415699885
0
LINE
6
DOT
48
1
8
作画層１
62
16
10
466.47891386261119
20
90.197304156998811
11
466.47891386261119
21
143.29730415699885
0
LINE
6
DOT
48
1
8
作画層１
62
16
10
466.47891386261119
20
143.29730415699885
11
481.27891386261115
21
143.29730415699885
0
LINE
6
DOT
48
1
8
作画層１
62
16
10
481.27891386261115
20
143.29730415699885
11
481.27891386261115
21
154.29964371671019
0
LINE
6
CENTER
48
1
8
作画層１
62
7
10
483.77891627437589
20
85.19730415699884
11
483.77891627437589
21
178.29730515699896
0
POLYLINE
6
CONTINUOUS
48
1
8
作画層１
62
7
66
1
0
VERTEX
6
CONTINUOUS
8
作画層１
62
7
10
501.0789138626111
20
143.29730415699885
0
VERTEX
6
CONTINUOUS
8
作画層１
62
7
10
506.0789138626111
20
148.29730415699885
0
SEQEND
0
LINE
6
CONTINUOUS
48
1
8
作画層１
62
7
10
501.0789138626111
20
143.29730415699885
11
502.11128976314342
21
145.09335538121269
0
LINE
6
CONTINUOUS
48
1
8
作画層１
62
7
10
501.0789138626111
20
143.29730415699885
11
502.87496508682489
21
144.32968005753122
0
DIMENSION
8
作画層１
2
*D2
10
471.27891618614058
20
183.29730515699896
11
496.2789163626112
21
183.29730515699896
13
471.27891618614058
23
173.29730515699896
14
496.2789163626112
24
173.29730515699896
50
0
0
DIMENSION
8
作画層１
2
*D3
10
490.77891627437589
20
178.29730515699896
11
488.77891627437589
21
178.29730515699896
13
485.42823040315341
23
160.77860025095208
14
483.77891627437589
24
178.29730515699896
50
0
0
LINE
6
CONTINUOUS
48
1
8
作画層１
62
6
10
471.97891386261119
20
65.197304156998925
11
471.97891386261119
21
62.197304156998925
0
LINE
6
CONTINUOUS
48
1
8
作画層１
62
6
10
473.47891386261119
20
63.697304156998925
11
470.47891386261119
21
63.697304156998925
0
LINE
6
CONTINUOUS
48
1
8
作画層１
62
6
10
470.47891386261119
20
63.697304156998925
11
471.97891386261119
21
65.197304156998925
0
LINE
6
CONTINUOUS
48
1
8
作画層１
62
6
10
471.97891386261119
20
65.197304156998925
11
473.47891386261119
21
63.697304156998925
0
LINE
6
CONTINUOUS
48
1
8
作画層１
62
6
10
470.47891386261119
20
63.697304156998925
11
471.97891386261119
21
62.197304156998925
0
LINE
6
CONTINUOUS
48
1
8
作画層１
62
6
10
471.97891386261119
20
62.197304156998811
11
473.47891386261119
21
63.697304156998925
0
TEXT
6
CONTINUOUS
8
作画層１
62
16
10
473.47891386261119
20
62.197304156998925
40
2
41
1
50
0
51
0
7
EXTFONT
1
スルーホール
72
5
11
485.47891386261119
21
62.197304156998925
0
TEXT
6
CONTINUOUS
8
作画層１
62
16
10
466.47891386261119
20
62.197304156998811
40
2
41
1
50
0
51
0
7
EXTFONT
1
注1:
72
5
11
470.47891386261119
21
62.197304156998811
0
LINE
6
CENTER
48
1
8
作画層１
62
7
10
470.47891386261119
20
61.697304156998811
11
470.47891386261119
21
58.697304156998811
0
LINE
6
CENTER
48
1
8
作画層１
62
7
10
470.47891386261119
20
61.697304156998811
11
473.47891386261119
21
61.697304156998811
0
LINE
6
CENTER
48
1
8
作画層１
62
7
10
470.47891386261119
20
58.697304156998811
11
473.47891386261119
21
58.697304156998811
0
LINE
6
CENTER
48
1
8
作画層１
62
7
10
473.47891386261119
20
61.697304156998811
11
473.47891386261119
21
58.697304156998811
0
LINE
6
CENTER
48
1
8
作画層１
62
7
10
473.33365830397599
20
58.697304156998811
11
473.47891386261119
21
58.84255971563401
0
LINE
6
CENTER
48
1
8
作画層１
62
7
10
471.56589135100972
20
58.697304156998811
11
473.47891386261119
21
60.61032666860028
0
LINE
6
CENTER
48
1
8
作画層１
62
7
10
470.47891386261119
20
59.378093621566663
11
472.79812439804334
21
61.697304156998811
0
LINE
6
CENTER
48
1
8
作画層１
62
7
10
470.47891386261119
20
61.145860574533046
11
471.03035744507696
21
61.697304156998811
0
TEXT
6
CONTINUOUS
8
作画層１
62
7
10
473.47891386261119
20
58.697304156998811
40
2
41
1
50
0
51
0
7
EXTFONT
1
銅箔部分
72
5
11
481.47891386261119
21
58.697304156998811
0
TEXT
6
CONTINUOUS
8
作画層１
62
7
10
466.47891386261119
20
58.697304156998811
40
2
41
1
50
0
51
0
7
EXTFONT
1
注2:
72
5
11
470.47891386261119
21
58.697304156998811
0
TEXT
6
CONTINUOUS
8
作画層１
62
16
10
466.47891386261119
20
55.197304156998811
40
2
41
1
50
0
51
0
7
EXTFONT
1
注3:図は透視図である。
72
5
11
488.47891386261119
21
55.197304156998811
0
LINE
6
CONTINUOUS
48
1
8
SONNET_Copper_1
62
7
10
471.27891912731718
20
148.2973042033247
11
471.27891618614058
21
173.29730515699896
0
POLYLINE
6
CONTINUOUS
48
1
8
作画層１
62
7
66
1
0
VERTEX
6
CONTINUOUS
8
作画層１
62
7
10
485.25145370785685
20
160.35182355565547
0
VERTEX
6
CONTINUOUS
8
作画層１
62
7
10
471.27891942143486
20
145.79730415344238
0
SEQEND
0
LINE
6
CONTINUOUS
48
1
8
作画層１
62
7
10
485.25145370785685
20
160.35182355565547
11
484.25592649525072
21
158.53508869086076
0
LINE
6
CONTINUOUS
48
1
8
作画層１
62
7
10
485.25145370785685
20
160.35182355565547
11
483.47683342097429
21
159.28302851572272
0
TEXT
6
CONTINUOUS
8
作画層１
62
7
10
455.27891942143486
20
145.79730415344238
40
2
41
1
50
0
51
0
7
BIGFONT
1
モジュール中心点
72
5
11
471.27891942143486
21
145.79730415344238
0
LINE
6
CONTINUOUS
48
1
8
作画層１
62
7
10
455.27891942143486
20
145.79730415344238
11
471.27891942143486
21
145.79730415344238
0
DIMENSION
8
作画層１
2
*D4
10
466.27891618614058
20
160.52860025095208
11
466.27891618614058
21
173.29730515699896
13
485.42823040315352
23
160.52860025095208
14
471.27891618614058
24
173.29730515699896
50
90
0
TEXT
6
CONTINUOUS
8
作画層１
62
7
10
506.0789138626111
20
148.29730415699885
40
2
41
1
50
0
51
0
7
BIGFONT
1
裏面：GND領域
72
5
11
519.0789138626111
21
148.29730415699885
0
LINE
6
CONTINUOUS
48
1
8
作画層１
62
7
10
506.0789138626111
20
148.29730415699885
11
519.0789138626111
21
148.29730415699885
0
TEXT
6
CONTINUOUS
8
作画層１
62
16
10
528.27891627437589
20
80.19730415699884
40
2
41
1
50
0
51
0
7
EXTFONT
1
<表面：パターン面>
72
5
11
546.27891627437589
21
80.19730415699884
0
LINE
6
CONTINUOUS
48
1
8
作画層１
62
16
10
528.27891627437589
20
80.19730415699884
11
546.27891627437589
21
80.19730415699884
0
TEXT
6
CONTINUOUS
8
作画層１
62
16
10
584.27891627437589
20
80.19730415699884
40
2
41
1
50
0
51
0
7
EXTFONT
1
<裏面：GND面>
72
5
11
597.27891627437589
21
80.19730415699884
0
LINE
6
CONTINUOUS
48
1
8
作画層１
62
16
10
584.27891627437589
20
80.19730415699884
11
597.27891627437589
21
80.19730415699884
0
TEXT
6
CONTINUOUS
8
作画層１
62
16
10
471.77891627437589
20
80.19730415699884
40
2
41
1
50
0
51
0
7
EXTFONT
1
<表面：MW-A-P2525実装面>
72
5
11
495.77891627437589
21
80.19730415699884
0
LINE
6
CONTINUOUS
48
1
8
作画層１
62
16
10
471.77891627437589
20
80.19730415699884
11
495.77891627437589
21
80.19730415699884
0
ENDSEC
0
EOF
